«Делай что должен, и будь что будет»- Информация о фильме
Название: Гонка
Оригинальное название: Rush
Год выхода: 2013
Жанр: спорт, драма, биография
Режиссер: Рон Ховард
Сценарий: Питер Морган
Продюсер: Эндрю Итон, Эрик Феллнер, Брайан Грейзер
В ролях: Крис Хемсворт, Оливия Уайлд, Натали Дормер, Даниэль Брюль, Александра Мария Лара, Ли Асквит-Коу, Том Влашиха, Жозефин Де Ла Буме, Джулиан Сигер, Пьерфранческо Фавинос
--О фильме:
70-е годы XX века. Золотое время «Формулы-1»: обтекаемые формы гоночных машин, брутальные на треке и ранимые в обычной жизни гонщики, сексуальные поклонницы, литры шампанского на финише для победителя… Два непримиримых соперника в истории гонок — обаятельный плейбой-англичанин Джеймс Хант и дисциплинированный перфекционист-австриец Ники Лауда — доводят себя до предела физической и психологической выносливости ради триумфа на трассе. Для них нет легких путей к победе и права на ошибку. Единственный промах гонщикам может стоить карьеры и даже жизни.- - Страна: Великобритания, Германия
Продолжительность: 02:02:42
-- Файл
Кодек: MPEG4/ISO/AVC H.264
Формат: MKV
Качество: BDRip 720p
Видео: 1280x534 | 59.940 fps | 5.1 Мбит/сек
Аудио 1: AC3 | 5.1 | 48 kHz | 640 kbps | 16 bit | Омикрон | iTunes |
Аудио 2: AC3 | 2.0 | 48 kHz | 128 kbps | 16 bit | Дубляж | iTunes |
Аудио 3: AC3 | 5.1 | 48 kHz | 640 kbps | 16 bit | Ю.Сербин | iTunes |
Аудио 4: AC3 | 5.1 | 48 kHz | 640 kbps | 16 bit | А.Киреев | iTunes |
Аудио 5: AC3 | 5.1 | 48 kHz | 640 kbps | 16 bit | С.Визгунов | iTunes |
Аудио 6: AC3 | 5.1 | 48 kHz | 640 kbps | 16 bit | Английский | iTunes |
Субтитры:Russian (Fors), eng

MedifInfo

Video
ID : 1
Format : AVC
Format/Info : Advanced Video Codec
Format profile : High@L4.0
Format settings, CABAC : Yes
Format settings, ReFrames : 9 frames
Codec ID : V_MPEG4/ISO/AVC
Duration : 2h 2mn
Bit rate : 5 150 Kbps
Width : 1 280 pixels
Height : 534 pixels
Display aspect ratio : 2.40:1
Frame rate mode : Constant
Frame rate : 59.880 fps
Original frame rate : 59.940 fps
Color space : YUV
Chroma subsampling : 4:2:0
Bit depth : 8 bits
Scan type : Progressive
Bits/(Pixel*Frame) : 0.126
Stream size : 4.41 GiB (60%)
Writing library : x264 core 130 r2273 b3065e6
Encoding settings : cabac=1 / ref=9 / deblock=1:0:0 / analyse=0x3:0x113 / me=umh / subme=10 / psy=1 / psy_rd=1.00:0.00 / mixed_ref=1 / me_range=32 / chroma_me=1 / trellis=2 / 8x8dct=1 / cqm=0 / deadzone=21,11 / fast_pskip=0 / chroma_qp_offset=-2 / threads=12 / lookahead_threads=1 / sliced_threads=0 / nr=0 / decimate=1 / interlaced=0 / bluray_compat=0 / constrained_intra=0 / bframes=6 / b_pyramid=2 / b_adapt=2 / b_bias=0 / direct=3 / weightb=1 / open_gop=0 / weightp=2 / keyint=250 / keyint_min=25 / scenecut=40 / intra_refresh=0 / rc=crf / mbtree=0 / crf=17.0 / qcomp=0.60 / qpmin=0 / qpmax=69 / qpstep=4 / ip_ratio=1.40 / pb_ratio=1.30 / aq=2:1.00
Language : English
Default : Yes
Forced : No
Audio #1
ID : 2
Format : AC-3
Format/Info : Audio Coding 3
Mode extension : CM (complete main)
Format settings, Endianness : Big
Codec ID : A_AC3
Duration : 2h 2mn
Bit rate mode : Constant
Bit rate : 640 Kbps
Channel(s) : 6 channels
Channel positions : Front: L C R, Side: L R, LFE
Sampling rate : 48.0 KHz
Bit depth : 16 bits
Compression mode : Lossy
Delay relative to video : 4s 0ms
Stream size : 562 MiB (7%)
Title : Omikron
Language : Russian
Default : Yes
Forced : No
Audio #2
ID : 3
Format : AC-3
Format/Info : Audio Coding 3
Mode extension : CM (complete main)
Format settings, Endianness : Big
Codec ID : A_AC3
Duration : 2h 2mn
Bit rate mode : Constant
Bit rate : 128 Kbps
Channel(s) : 2 channels
Channel positions : Front: L R
Sampling rate : 48.0 KHz
Bit depth : 16 bits
Compression mode : Lossy
Stream size : 112 MiB (1%)
Title : Dub
Language : Russian
Default : No
Forced : No
Audio #3
ID : 4
Format : AC-3
Format/Info : Audio Coding 3
Mode extension : CM (complete main)
Format settings, Endianness : Big
Codec ID : A_AC3
Duration : 2h 2mn
Bit rate mode : Constant
Bit rate : 640 Kbps
Channel(s) : 6 channels
Channel positions : Front: L C R, Side: L R, LFE
Sampling rate : 48.0 KHz
Bit depth : 16 bits
Compression mode : Lossy
Delay relative to video : 21s 500ms
Stream size : 562 MiB (7%)
Title : Serbin
Language : Russian
Default : No
Forced : No
Audio #4
ID : 5
Format : AC-3
Format/Info : Audio Coding 3
Mode extension : CM (complete main)
Format settings, Endianness : Big
Codec ID : A_AC3
Duration : 2h 2mn
Bit rate mode : Constant
Bit rate : 640 Kbps
Channel(s) : 6 channels
Channel positions : Front: L C R, Side: L R, LFE
Sampling rate : 48.0 KHz
Bit depth : 16 bits
Compression mode : Lossy
Stream size : 562 MiB (7%)
Title : Kireev
Language : Russian
Default : No
Forced : No
Audio #5
ID : 6
Format : AC-3
Format/Info : Audio Coding 3
Mode extension : CM (complete main)
Format settings, Endianness : Big
Codec ID : A_AC3
Duration : 2h 2mn
Bit rate mode : Constant
Bit rate : 640 Kbps
Channel(s) : 6 channels
Channel positions : Front: L C R, Side: L R, LFE
Sampling rate : 48.0 KHz
Bit depth : 16 bits
Compression mode : Lossy
Delay relative to video : 4s 200ms
Stream size : 562 MiB (7%)
Title : Vizgunov
Language : Russian
Default : No
Forced : No
Audio #6
ID : 7
Format : AC-3
Format/Info : Audio Coding 3
Mode extension : CM (complete main)
Format settings, Endianness : Big
Codec ID : A_AC3
Duration : 2h 2mn
Bit rate mode : Constant
Bit rate : 640 Kbps
Channel(s) : 6 channels
Channel positions : Front: L C R, Side: L R, LFE
Sampling rate : 48.0 KHz
Bit depth : 16 bits
Compression mode : Lossy
Delay relative to video : 21s 500ms
Stream size : 562 MiB (7%)
Title : Eng
Language : English
Default : No
Forced : No
Text #1
ID : 8
Format : UTF-8
Codec ID : S_TEXT/UTF8
Codec ID/Info : UTF-8 Plain Text
Title : Rus forced
Language : Russian
Default : Yes
Forced : No
Text #2
ID : 9
Format : UTF-8
Codec ID : S_TEXT/UTF8
Codec ID/Info : UTF-8 Plain Text
Title : Rus full
Language : Russian
Default : No
Forced : No
Text #3
ID : 10
Format : UTF-8
Codec ID : S_TEXT/UTF8
Codec ID/Info : UTF-8 Plain Text
Title : Eng full
Language : English
Default : No
Forced : No
Menu
00:00:00.000 : en:(01)00:00:00:000
00:12:17.027 : en:(02)00:12:17:027
00:21:58.150 : en:(03)00:21:58:150
00:28:46.725 : en:(04)00:28:46:725
00:40:03.192 : en:(05)00:40:03:192
00:48:00.210 : en:(06)00:48:00:210
00:59:03.873 : en:(07)00:59:03:873
01:05:39.769 : en:(08)01:05:39:769
01:19:03.947 : en:(09)01:19:03:947
01:29:31.366 : en:(10)01:29:31:366
01:42:21.635 : en:(11)01:42:21:635
01:46:42.396 : en:(12)01:46:42:396


Последний раз редактировалось: bot (2016-01-26 11:53), всего редактировалось 1 раз

[Цитировать]
JuiceJet

Фильм один лучших который я когда либо видел! Спасибо

[Цитировать]
cthulhu

Мне кажется или описание не относится к этому фильму?

[Цитировать]
Kryl

5082Мне кажется или описание не относится к этому фильму?
Поправил .

[Цитировать]
Axter

Спасибо Улыбаюсь

[Цитировать]
mgf

Фильм просто супер! А где можно заказать еще фильм "Сена" в 60fps 1080p?

[Цитировать]
Kryl

6257Фильм просто супер! А где можно заказать еще фильм "Сена" в 60fps 1080p?
в личку мне пишите .
 
Показать сообщения:    

Текущее время: 24-Сен 22:28

Часовой пояс: UTC + 3


Вы не можете начинать темы
Вы не можете отвечать на сообщения
Вы не можете редактировать свои сообщения
Вы не можете удалять свои сообщения
Вы не можете голосовать в опросах
Вы не можете прикреплять файлы к сообщениям
Вы не можете скачивать файлы