[Цитировать]
Kryl

«Нет слов, одни эмоции»- Информация
Название: Головоломка
Оригинальное название: Inside Out
Год выхода: 2015
Жанр: мультфильм, семейный, комедия
Режиссер: Пит Доктер, Роналдо Дель Кармен
Сценарий: Пит Доктер, Мэг ЛеФов, Джош Кули
Продюсер: Джонас Ривера, Джон Лассетер, Марк Нилсен
Персонажей озвучивали: Эми Полер, Филлис Смит, Ричард Кайнд, Билл Хейдер, Льюис Блэк, Минди Кейлинг, Кейтлин Диас, Дайан Лэйн, Кайл МакЛоклен, Пола Паундстон
--Сюжет:
Райли — обычная 11-летняя школьница, и, как у каждого из нас, ее поведение определяют пять базовых эмоций: Радость, Печаль, Страх, Гнев и Брезгливость. Эмоции живут в сознании девочки и каждый день помогают ей справляться с проблемами, руководя всеми ее поступками. До поры до времени эмоции живут дружно, но вдруг оказывается, что Райли и ее родителям предстоит переезд из небольшого уютного городка в шумный и людный мегаполис. Каждая из эмоций считает, что именно она лучше прочих знает, что нужно делать в этой непростой ситуации, и в голове у девочки наступает полная неразбериха. Чтобы наладить жизнь в большом городе, освоиться в новой школе и подружиться с одноклассниками, эмоциям Райли предстоит снова научиться работать сообща.- - Страна: США
Продолжительность: 01:34:51
-- Файл
Кодек: MPEG4/ISO/AVC H.264
Формат: MKV
Качество: BDRip 3D 1080p / 60 fps
Формат 3D: Half OverUnder / Горизонтальная анаморфная стереопара
Порядок ракурсов: Левый ракурс первый
Видео: 1920x1080 (16:9) | 59.940 fps | 18.7 Мбит/сек
Аудио: AC3 | 5.1 | 48 kHz | 384 kbps | 16 bit | Дубляж (iTunes) |
Субтитры: Русские, Английские

MedifInfo

Video
ID : 1
Format : AVC
Format/Info : Advanced Video Codec
Format profile : High@L4.1
Format settings, CABAC : Yes
Format settings, ReFrames : 4 frames
Codec ID : V_MPEG4/ISO/AVC
Duration : 1h 34mn
Bit rate : 18.7 Mbps
Width : 1 920 pixels
Height : 1 080 pixels
Display aspect ratio : 16:9
Frame rate : 59.940 fps
Color space : YUV
Chroma subsampling : 4:2:0
Bit depth : 8 bits
Scan type : Progressive
Bits/(Pixel*Frame) : 0.150
Stream size : 12.1 GiB (96%)
Writing library : x264 core 146 r2538 121396c
Encoding settings : cabac=1 / ref=4 / deblock=1:0:0 / analyse=0x3:0x113 / me=umh / subme=9 / psy=1 / psy_rd=1.00:0.00 / mixed_ref=1 / me_range=23 / chroma_me=1 / trellis=2 / 8x8dct=1 / cqm=0 / deadzone=21,11 / fast_pskip=1 / chroma_qp_offset=-2 / threads=12 / lookahead_threads=3 / sliced_threads=0 / nr=0 / decimate=1 / interlaced=0 / bluray_compat=0 / constrained_intra=0 / bframes=16 / b_pyramid=2 / b_adapt=2 / b_bias=0 / direct=1 / weightb=1 / open_gop=0 / weightp=2 / keyint=250 / keyint_min=25 / scenecut=40 / intra_refresh=0 / rc=2pass / mbtree=0 / bitrate=18705 / ratetol=1.0 / qcomp=0.60 / qpmin=0 / qpmax=69 / qpstep=4 / cplxblur=20.0 / qblur=0.5 / ip_ratio=1.40 / pb_ratio=1.30 / aq=1:1.00
Language : English
Default : Yes
Forced : No
Audio
ID : 2
Format : AC-3
Format/Info : Audio Coding 3
Mode extension : CM (complete main)
Codec ID : A_AC3
Duration : 1h 34mn
Bit rate mode : Constant
Bit rate : 384 Kbps
Channel(s) : 6 channels
Channel positions : Front: L C R, Side: L R, LFE
Sampling rate : 48.0 KHz
Bit depth : 16 bits
Compression mode : Lossy
Stream size : 261 MiB (2%)
Language : Russian
Default : Yes
Forced : No
Text #1
ID : 3
Format : UTF-8
Codec ID : S_TEXT/UTF8
Codec ID/Info : UTF-8 Plain Text
Language : Russian
Default : No
Forced : No
Text #2
ID : 4
Format : UTF-8
Codec ID : S_TEXT/UTF8
Codec ID/Info : UTF-8 Plain Text
Language : English
Default : No
Forced : No
Menu
00:00:00.000 : :Chapter 01
00:07:22.692 : :Chapter 02
00:11:36.779 : :Chapter 03
00:15:46.403 : :Chapter 04
00:20:02.242 : :Chapter 05
00:25:21.436 : :Chapter 06
00:26:47.063 : :Chapter 07
00:30:10.183 : :Chapter 08
00:34:45.792 : :Chapter 09
00:36:02.285 : :Chapter 10
00:37:45.304 : :Chapter 11
00:41:27.359 : :Chapter 12
00:43:35.613 : :Chapter 13
00:45:19.508 : :Chapter 14
00:46:51.850 : :Chapter 15
00:50:02.457 : :Chapter 16
00:51:34.341 : :Chapter 17
00:56:12.160 : :Chapter 18
01:00:03.683 : :Chapter 19
01:01:17.840 : :Chapter 20
01:03:50.368 : :Chapter 21
01:06:27.191 : :Chapter 22
01:11:15.771 : :Chapter 23
01:13:40.541 : :Chapter 24
01:15:38.659 : :Chapter 25
01:20:00.337 : :Chapter 26
01:23:57.198 : :Chapter 27
01:26:18.339 : :Chapter 28
01:34:37.588 : :Chapter 29


Последний раз редактировалось: Kryl (2016-07-12 18:00), всего редактировалось 3 раз(а)

[Цитировать]
baragoon

Блин, осталось скачать 8Мб и всё встало, 99%... сид, вернись)

[Цитировать]
Kryl

[mod]
перекачайте торрент файл
[/mod]

[Цитировать]
nikolai79

не показывает((
 
Показать сообщения:    

Текущее время: 06-Дек 15:10

Часовой пояс: UTC + 3


Вы не можете начинать темы
Вы не можете отвечать на сообщения
Вы не можете редактировать свои сообщения
Вы не можете удалять свои сообщения
Вы не можете голосовать в опросах
Вы не можете прикреплять файлы к сообщениям
Вы не можете скачивать файлы