1. Longevity:
    7 years
    Posts:
    2413
    Gender:
    Male
    «Stories are wild creatures»- Информация
    Название: Голос монстра
    Оригинальное название: A Monster Calls
    Год выхода: 2016
    Жанр: Фэнтези, драма
    Режиссер: Хуан Антонио Байона
    Сценарий: Патрик Несс, Siobhan Dowd
    Продюсер: Белен Атьенса, Альваро Аугустин, Жислен Баруа
    В ролях: Льюис МакДугалл, Сигурни Уивер, Фелисити Джонс, Тоби Кеббелл, Бен Моор, Джеймс Мелвилл, Оливер Стир, Доминик Бойл, Дженнифер Лим, Макс Габбей
    --Сюжет:
    Поражающая воображение история о мальчике Конноре и монстре из его снов. Когда Коннору особенно тяжело, происходит нечто невероятное — старое тисовое дерево за окном оживает и превращается в громадное чудовище. По ночам монстр рассказывает Коннору истории, которые помогут ему понять, что даже когда весь мир рушится, можно найти в себе силы и не отчаиваться.- Страна: США, Испания, Великобритания
    Продолжительность: 01:48:36

    Файл
    Кодек: MPEG4/ISO/AVC H.264
    Формат: MKV
    Качество: BDRip 1080p | 60 fps
    Видео: 1920 x 804 (2.388) | 59.940 fps | 20.0 Мбит/сек
    Аудио 1: AC3 | 5.1 | 48 kHz | 384 kbps | 16 bit | Дубляж - iTunes |
    Аудио 2: AC3 | 5.1 | 48 kHz | 448 kbps | 16 bit | ENG |
    Субтитры: Русские, английские

    MedifInfo

    Видео
    Идентификатор : 1
    Формат : AVC
    Формат/Информация : Advanced Video Codec
    Профиль формата : [email protected]
    Параметр CABAC формата : Да
    Параметр ReFrames формата : 5 кадров
    Идентификатор кодека : V_MPEG4/ISO/AVC
    Продолжительность : 1 ч. 48 м.
    Битрейт : 20,0 Мбит/сек
    Ширина : 1920 пикселей
    Высота : 804 пикселя
    Соотношение сторон : 2,40:1
    Режим частоты кадров : Постоянный
    Частота кадров : 59,880 кадров/сек
    Частота кадров в оригинале : 59,940 кадров/сек
    Цветовое пространство : YUV
    Субдискретизация насыщенности : 4:2:0
    Битовая глубина : 8 бит
    Тип развёртки : Прогрессивная
    Бит/(Пиксели*Кадры) : 0.216
    Размер потока : 14,8 Гбайт (94%)
    Заголовок : www.60-fps.org
    Библиотека кодирования : x264 core 148 r2638 7599210
    Настройки программы : cabac=1 / ref=5 / deblock=1:-3:-3 / analyse=0x3:0x113 / me=umh / subme=8 / psy=1 / psy_rd=1.00:0.25 / mixed_ref=1 / me_range=32 / chroma_me=1 / trellis=1 / 8x8dct=1 / cqm=0 / deadzone=6,6 / fast_pskip=1 / chroma_qp_offset=-4 / threads=12 / lookahead_threads=2 / sliced_threads=0 / nr=0 / decimate=0 / interlaced=0 / bluray_compat=0 / constrained_intra=0 / bframes=3 / b_pyramid=2 / b_adapt=2 / b_bias=0 / direct=3 / weightb=1 / open_gop=0 / weightp=2 / keyint=599 / keyint_min=59 / scenecut=40 / intra_refresh=0 / rc_lookahead=50 / rc=2pass / mbtree=1 / bitrate=19999 / ratetol=1.0 / qcomp=0.80 / qpmin=0 / qpmax=69 / qpstep=4 / cplxblur=20.0 / qblur=0.5 / vbv_maxrate=62500 / vbv_bufsize=78125 / nal_hrd=none / filler=0 / ip_ratio=1.10 / aq=1:0.50
    Default : Да
    Forced : Нет
    Аудио #1
    Идентификатор : 2
    Формат : AC-3
    Формат/Информация : Audio Coding 3
    Расширение режима : CM (complete main)
    Параметр Endianness формата : Big
    Идентификатор кодека : A_AC3
    Продолжительность : 1 ч. 48 м.
    Вид битрейта : Постоянный
    Битрейт : 384 Кбит/сек
    Каналы : 6 каналов
    Расположение каналов : Front: L C R, Side: L R, LFE
    Частота : 48,0 КГц
    Битовая глубина : 16 бит
    Метод сжатия : С потерями
    Размер потока : 298 Мбайт (2%)
    Заголовок : Дубляж - iTunes
    Язык : Russian
    Default : Да
    Forced : Нет
    Аудио #2
    Идентификатор : 3
    Формат : AC-3
    Формат/Информация : Audio Coding 3
    Расширение режима : CM (complete main)
    Параметр Endianness формата : Big
    Идентификатор кодека : A_AC3
    Продолжительность : 1 ч. 48 м.
    Вид битрейта : Постоянный
    Битрейт : 448 Кбит/сек
    Каналы : 6 каналов
    Расположение каналов : Front: L C R, Side: L R, LFE
    Частота : 48,0 КГц
    Битовая глубина : 16 бит
    Метод сжатия : С потерями
    Размер потока : 347 Мбайт (2%)
    Заголовок : Original
    Язык : English
    Default : Нет
    Forced : Нет
    Текст #1
    Идентификатор : 4
    Формат : UTF-8
    Идентификатор кодека : S_TEXT/UTF8
    Идентификатор кодека/Информация : UTF-8 Plain Text
    Заголовок : Full [iTunes]
    Язык : Russian
    Default : Нет
    Forced : Нет
    Текст #2
    Идентификатор : 5
    Формат : UTF-8
    Идентификатор кодека : S_TEXT/UTF8
    Идентификатор кодека/Информация : UTF-8 Plain Text
    Заголовок : Full
    Язык : English
    Default : Нет
    Forced : Нет
    Меню
    00:00:00.000 : en:00:00:00.000
    00:08:12.659 : en:00:08:12.659
    00:15:35.601 : en:00:15:35.601
    00:24:41.480 : en:00:24:41.480
    00:31:50.909 : en:00:31:50.909
    00:38:50.703 : en:00:38:50.703
    00:50:10.925 : en:00:50:10.925
    00:55:48.095 : en:00:55:48.095
    01:03:51.661 : en:01:03:51.661
    01:13:11.679 : en:01:13:11.679
    01:19:19.296 : en:01:19:19.296
    01:28:52.494 : en:01:28:52.494
    01:40:36.030 : en:01:40:36.030

    Release was prepared by 60-fps.org



    Last edited by Kryl on 2017-03-07 21:27; edited 2 times in total
  2. Longevity:
    5 years 1 month
    Posts:
    1675
    Gender:
    Male
    Обезьяна
    07-Mar-2017 19:53 (after 10 hours)
  3. Longevity:
    4 years 11 months
    Posts:
    25
    Gender:
    Unknown
    забираем Улыбаюсь
    23-Sep-2017 18:43 (after 6 months 15 days)
  4. Longevity:
    3 years 10 months
    Posts:
    1
    Gender:
    Female
    Может ли кто-то, у кого скачано, прийти на раздачу?
    13-Dec-2017 12:34 (after 2 months 19 days)


You cannot post new topics in this forum
You cannot reply to topics in this forum
You cannot edit your posts in this forum
You cannot delete your posts in this forum
You cannot vote in polls in this forum
You cannot attach files in this forum
You cannot download files in this forum