[Цитировать]
Kryl

Голограмма для короля / A Hologram for the King (2016) BDRip 720p | 60 fps- Информация
Название: Голограмма для короля
Оригинальное название: A Hologram for the King
Год выхода: 2016
Жанр: Комедия, драма
Режиссер: Том Тыквер
Сценарий: Том Тыквер, Дэйв Эггерс
Продюсер: Штефан Арндт, Гари Гоэцман, Аркадий Голубович
В ролях: Том Хэнкс, Александр Блэк, Сарита Чоудхури, Сидсе Бабетт Кнудсен, Трэйси Фэирэуэй, Джейн Перри, Том Скерритт, Михаэль Бараль, Льюис Райнер, Александр Молкентин
--Сюжет:
Алан Клей — муж, отец, бизнесмен. Но его бизнес терпит крах, его брак трещит по швам, и он не знает, где взять деньги на оплату обучения дочери. Чтобы избежать банкротства и разорвать замкнутый круг, Клей отправляется в Саудовскую Аравию, где он надеется продвинуть свой дерзкий технологический проект. Во время томительного ожидания встречи с королем Алан познает скрытые тайны арабского мира, которые преображают реальность, подобно голограмме. Никто не подозревал, чем обернется это путешествие к Красному морю…- Страна: Великобритания, Франция, Германия, США, Мексика
Продолжительность: 01:38:10

Файл
Кодек: MPEG4/ISO/AVC H.264 |
Формат: MKV
Качество: BDRip 720p | 60 fps
Видео: 1280 x 534 (2.397) | 59.940 fps | 8.0 Мбит/сек
Аудио 1: AC3 | 5.1 | 48 kHz | 384 kbps | 16 bit | Дубляж iTunes |
Аудио 2: AC3 | 5.1 | 48 kHz | 448 kbps | 24 bit | ENG |
Субтитры: Eng

MedifInfo

Видео
Идентификатор : 1
Формат : AVC
Формат/Информация : Advanced Video Codec
Профиль формата : High@L4.1
Параметр CABAC формата : Да
Параметр ReFrames формата : 3 кадра
Идентификатор кодека : V_MPEG4/ISO/AVC
Продолжительность : 1 ч. 38 м.
Вид битрейта : Переменный
Битрейт : 7613 Кбит/сек
Максимальный битрейт : 8000 Кбит/сек
Ширина : 1280 пикселей
Высота : 534 пикселя
Соотношение сторон : 2,40:1
Режим частоты кадров : Постоянный
Частота кадров : 59,880 кадров/сек
Частота кадров в оригинале : 59,940 кадров/сек
Стандарт вещания : PAL
Цветовое пространство : YUV
Субдискретизация насыщенности : 4:2:0
Битовая глубина : 8 бит
Тип развёртки : Прогрессивная
Бит/(Пиксели*Кадры) : 0.186
Размер потока : 5,22 Гбайт (88%)
Заголовок : www.60-fps.org
Язык : English
Default : Да
Forced : Нет
Основные цвета : BT.601 NTSC
Характеристики трансфера : BT.601
Коэффициенты матрицы : BT.601
colour_range : Limited
Аудио #1
Идентификатор : 2
Формат : AC-3
Формат/Информация : Audio Coding 3
Расширение режима : CM (complete main)
Параметр Endianness формата : Big
Идентификатор кодека : A_AC3
Продолжительность : 1 ч. 38 м.
Вид битрейта : Постоянный
Битрейт : 384 Кбит/сек
Каналы : 6 каналов
Расположение каналов : Front: L C R, Side: L R, LFE
Частота : 48,0 КГц
Битовая глубина : 16 бит
Метод сжатия : С потерями
Размер потока : 270 Мбайт (4%)
Заголовок : Дубляж - iTunes
Язык : Russian
Default : Да
Forced : Нет
Аудио #2
Идентификатор : 3
Формат : AC-3
Формат/Информация : Audio Coding 3
Расширение режима : CM (complete main)
Параметр Endianness формата : Big
Идентификатор кодека : A_AC3
Продолжительность : 1 ч. 38 м.
Вид битрейта : Постоянный
Битрейт : 448 Кбит/сек
Каналы : 6 каналов
Расположение каналов : Front: L C R, Side: L R, LFE
Частота : 48,0 КГц
Битовая глубина : 16 бит
Метод сжатия : С потерями
Размер потока : 315 Мбайт (5%)
Заголовок : eng
Язык : English
Default : Нет
Forced : Нет
Текст #1
Идентификатор : 4
Формат : UTF-8
Идентификатор кодека : S_TEXT/UTF8
Идентификатор кодека/Информация : UTF-8 Plain Text
Заголовок : FULL
Язык : English
Default : Нет
Forced : Нет
Текст #2
Идентификатор : 5
Формат : UTF-8
Идентификатор кодека : S_TEXT/UTF8
Идентификатор кодека/Информация : UTF-8 Plain Text
Заголовок : SDH
Язык : English
Default : Нет
Forced : Нет
Меню
00:00:00.000 : en:
00:06:26.427 : en:
00:09:26.857 : en:
00:15:03.193 : en:
00:21:33.500 : en:
00:26:52.235 : en:
00:32:34.744 : en:
00:36:51.167 : en:
00:42:17.952 : en:
00:47:27.261 : en:
00:54:37.816 : en:
00:59:26.229 : en:
01:06:18.974 : en:
01:10:21.508 : en:
01:17:45.118 : en:
01:23:17.492 : en:
01:28:06.864 : en:
01:33:28.811 : en:
01:42:20.759 : en:
01:44:26.426 : en:

Релиз подготовлен 60 - fps

Топик был перенесен из форума Новинки Кино 60 FPS в форум Зарубежные фильмы 60 FPS
Kryl
 
Показать сообщения:    

Текущее время: 07-Дек 19:20

Часовой пояс: UTC + 3


Вы не можете начинать темы
Вы не можете отвечать на сообщения
Вы не можете редактировать свои сообщения
Вы не можете удалять свои сообщения
Вы не можете голосовать в опросах
Вы не можете прикреплять файлы к сообщениям
Вы не можете скачивать файлы