Стражи Галактики. Часть 2 / Guardians of the Galaxy Vol. 2 (2017) BDRip 1080p | 60 fps Первому игроку приготовиться / Ready Player One (2018) BDRip 1080p | 60 fps Дэдпул / Deadpool (2016) BDRip 1080p | 60 fps Аватар / Avatar (2009) BDRip 1080p | 60 fps Рэмпейдж / Rampage (2018) BDRip 1080p | 60 fps Доктор Стрэндж / Doctor Strange (2016) BDRip 1080p | 60 fps Гарри Поттер: Коллекция / Harry Potter: Collection (2001-2011) BDRip-AVC | 60 fps Валериан и город тысячи планет / Valerian and the City of a Thousand Planets (2017) BDRip 1080p | 60 fps
  1. Стаж:
    2 года
    Сообщений:
    578
    Пол:
    Мужской
    «До Джека Потрошителя у страха было другое имя»- Информация
    Название: Голем
    Оригинальное название: The Limehouse Golem
    Год выхода: 2016
    Жанр: ужасы, триллер
    Режиссер: Хуан Карлос Медина
    Сценарий: Джейн Голдман, Питер Акройд
    Продюсер: Элизабет Карлсен, Джоэнна Лори, Стивен Вулли
    В ролях: Дуглас Бут,Оливия Кук,Сэм Рид,Мария Вальверде,Дэниэл Мейс,Билл Найи,Питер Салливан,Майкл Дженн,Дэниэл Серкера,Патрик Дархэм
    --Сюжет:
    Викторианский Лондон, 1880. Опасный район Лаймхаус потрясает серия жестоких убийств. Напуганные до смерти жители полагают, что в этих чудовищных преступлениях повинен голем — древнее мифологическое существо, оживляемое при помощи черной магии. Расследовать загадочные убийства назначают опытного детектива, инспектора Килдэра.- Страна: Великобритания
    Продолжительность: 01:48:37

    Файл
    Кодек: MPEG4/ISO/AVC/H.264
    Формат: MKV
    Качество: BDRip 1080p | 60 fps
    Видео: 1920 x 800 (2.400) | 60.000 fps | 20.0 Мбит/сек
    Аудио 1: AC-3| 5.1 | 48 kHz | 384 Кбит/сек | 16 bit | Многоголосный |
    Аудио 2: DTS HD MA| 5.1 | 48 kHz | 448 Кбит/сек | 16 bit | Оригинал
    Субтитры: НЕТ

    MedifInfo

    Видео
    Идентификатор : 1
    Формат : AVC
    Формат/Информация : Advanced Video Codec
    Профиль формата : High@L4.1
    Параметр CABAC формата : Да
    Параметр ReFrames формата : 4 кадра
    Идентификатор кодека : V_MPEG4/ISO/AVC
    Продолжительность : 1 ч. 48 м.
    Битрейт : 20,0 Мбит/сек
    Ширина : 1920 пикселей
    Высота : 800 пикселей
    Соотношение сторон : 2,40:1
    Режим частоты кадров : Постоянный
    Частота кадров : 60,000 кадров/сек
    Цветовое пространство : YUV
    Субдискретизация насыщенности : 4:2:0
    Битовая глубина : 8 бит
    Тип развёртки : Прогрессивная
    Бит/(Пиксели*Кадры) : 0.217
    Размер потока : 15,2 Гбайт (91%)
    Заголовок : Талямба: 60-fps.org
    Библиотека кодирования : x264 core 146 r2538 121396c
    Настройки программы : cabac=1 / ref=3 / deblock=1:-3:-3 / analyse=0x3:0x113 / me=hex / subme=7 / psy=1 / psy_rd=1.00:0.25 / mixed_ref=1 / me_range=16 / chroma_me=1 / trellis=1 / 8x8dct=1 / cqm=0 / deadzone=6,6 / fast_pskip=1 / chroma_qp_offset=-4 / threads=12 / lookahead_threads=2 / sliced_threads=0 / nr=0 / decimate=0 / interlaced=0 / bluray_compat=0 / constrained_intra=0 / bframes=3 / b_pyramid=2 / b_adapt=1 / b_bias=0 / direct=1 / weightb=1 / open_gop=0 / weightp=2 / keyint=599 / keyint_min=59 / scenecut=40 / intra_refresh=0 / rc_lookahead=40 / rc=2pass / mbtree=1 / bitrate=20000 / ratetol=1.0 / qcomp=0.80 / qpmin=0 / qpmax=69 / qpstep=4 / cplxblur=20.0 / qblur=0.5 / vbv_maxrate=50000 / vbv_bufsize=50000 / nal_hrd=none / filler=0 / ip_ratio=1.10 / aq=1:0.50
    Язык : English
    Default : Да
    Forced : Нет
    Аудио #1
    Идентификатор : 2
    Формат : AC-3
    Формат/Информация : Audio Coding 3
    Расширение режима : CM (complete main)
    Параметр Endianness формата : Big
    Идентификатор кодека : A_AC3
    Продолжительность : 1 ч. 48 м.
    Вид битрейта : Постоянный
    Битрейт : 384 Кбит/сек
    Каналы : 6 каналов
    Расположение каналов : Front: L C R, Side: L R, LFE
    Частота : 48,0 КГц
    Частота кадров : 31,250 кадров/сек (1536 spf)
    Битовая глубина : 16 бит
    Метод сжатия : С потерями
    Размер потока : 298 Мбайт (2%)
    Заголовок : Многоголосный
    Язык : Russian
    Default : Да
    Forced : Нет
    Аудио #2
    Идентификатор : 3
    Формат : DTS
    Формат/Информация : Digital Theater Systems
    Профиль формата : MA / Core
    Режим : 16
    Параметр Endianness формата : Big
    Идентификатор кодека : A_DTS
    Продолжительность : 1 ч. 48 м.
    Вид битрейта : Переменный / Постоянный
    Битрейт : 1649 Кбит/сек / 768 Кбит/сек
    Каналы : 6 каналов
    Расположение каналов : Front: L C R, Side: L R, LFE
    Частота : 48,0 КГц
    Частота кадров : 93,750 кадра/сек (512 spf)
    Битовая глубина : 16 бит
    Метод сжатия : Без потерь / Lossy
    Размер потока : 1,25 Гбайт (7%)
    Заголовок : Оригинал
    Язык : English
    Default : Нет
    Forced : Нет
    Меню
    00:00:00.000 : en:00:00:00.000
    00:08:02.375 : en:00:08:02.375
    00:17:45.333 : en:00:17:45.333
    00:24:37.958 : en:00:24:37.958
    00:36:20.125 : en:00:36:20.125
    00:46:17.750 : en:00:46:17.750
    00:55:19.625 : en:00:55:19.625
    01:07:52.333 : en:01:07:52.333
    01:15:51.292 : en:01:15:51.292
    01:24:56.125 : en:01:24:56.125
    01:31:49.208 : en:01:31:49.208
    01:38:13.208 : en:01:38:13.208


Вы не можете начинать темы
Вы не можете отвечать на сообщения
Вы не можете редактировать свои сообщения
Вы не можете удалять свои сообщения
Вы не можете голосовать в опросах
Вы не можете прикреплять файлы к сообщениям
Вы не можете скачивать файлы