За гранью реальности (2018) BDRip 1080p | 60 FPS Гоголь. Начало (2017) BDRip 1080p | 60 fps Я худею (2018) BDRip 1080p | 60 FPS Каникулы президента (2018) BDRip 1080p | 60 FPS О чём говорят мужчины. Продолжение (2018) BDRip 1080p | 60 FPS Гоголь. Начало (2017) BDRip 720p | 60 fps Собибор (2018) BDRip 1080p | 60 fps Затмение (Мистическая Игра) / Eclipse (2017) BDRip 1080p | 60 fps
  1. Стаж:
    4 года
    Сообщений:
    2414
    Пол:
    Мужской
    «Самая тёмная ночь перед рассветом» Информация
    Название: Гоголь. Начало
    Год выхода: 2017
    Жанр: Приключения, триллер, детектив
    Режиссер: Егор Баранов
    Сценарий: Тихон Корнев, Ким Белов, Алексей Чупов
    Продюсер: Александр Цекало, Артур Джанибекян, Валерий Федорович
    В ролях: Александр Петров (II), Олег Меньшиков, Евгений Сытый, Таисия Вилкова, Артём Ткаченко, Юлия Франц, Евгений Стычкин, Ян Цапник, Сергей Бадюк, Марта Тимофеева

    Сюжет:
    Казаки, ведьмы, русалки, утопленницы и другие обитатели Диканьки встречаются лицом к лицу со своим создателем Николаем Гоголем, молодым писарем из Петербурга, который страдает загадочными припадками и может общаться с персонажами из потустороннего мира. Вместе со своим начальником, блестящим столичным следователем Яковом Гуро, начинающий писатель приезжает на Полтавщину расследовать таинственные убийства девушек. Здесь же он встречает свою любовь, которой суждено сыграть роковую роль в его судьбе. Но хватит ли юному литератору духу противостоять невообразимому? Ведь по слухам, которые активно разносят напуганные местные жители, за преступлениями стоит не кто иной, как сам Дьявол в обличии черного всадника.

    Страна: Россия
    Продолжительность: 01:46:47

    Файл
    Кодек: H.264
    Формат: MKV
    Качество: BDRip 720p | 60 fps
    Видео: 1280 x 536 (2.388) | 60.000 fps | 10.0 Мбит/сек
    Аудио: AC3 | 5.1 | 48 kHz | 640 kbps | 16 bit

    MedifInfo

    Видео
    Идентификатор : 1
    Формат : AVC
    Формат/Информация : Advanced Video Codec
    Профиль формата : High@L4.1
    Параметр CABAC формата : Да
    Параметр ReFrames формата : 3 кадра
    Идентификатор кодека : V_MPEG4/ISO/AVC
    Продолжительность : 1 ч. 46 м.
    Вид битрейта : Переменный
    Битрейт : 9754 Кбит/сек
    Максимальный битрейт : 10000 Кбит/сек
    Ширина : 1280 пикселей
    Высота : 536 пикселей
    Соотношение сторон : 2,40:1
    Режим частоты кадров : Постоянный
    Частота кадров : 60,000 кадров/сек
    Стандарт вещания : PAL
    Цветовое пространство : YUV
    Субдискретизация насыщенности : 4:2:0
    Битовая глубина : 8 бит
    Тип развёртки : Прогрессивная
    Бит/(Пиксели*Кадры) : 0.237
    Размер потока : 7,28 Гбайт (92%)
    Заголовок : www.60-fps.org
    Язык : English
    Default : Да
    Forced : Нет
    Основные цвета : BT.601 NTSC
    Характеристики трансфера : BT.601
    Коэффициенты матрицы : BT.601
    colour_range : Limited
    Аудио
    Идентификатор : 2
    Формат : AC-3
    Формат/Информация : Audio Coding 3
    Расширение режима : CM (complete main)
    Параметр Endianness формата : Big
    Идентификатор кодека : A_AC3
    Продолжительность : 1 ч. 46 м.
    Вид битрейта : Постоянный
    Битрейт : 640 Кбит/сек
    Каналы : 6 каналов
    Расположение каналов : Front: L C R, Side: L R, LFE
    Частота : 48,0 КГц
    Битовая глубина : 16 бит
    Метод сжатия : С потерями
    Размер потока : 489 Мбайт (6%)
    Заголовок : Лицензия
    Язык : Russian
    Default : Да
    Forced : Нет
    Меню
    00:00:00.000 : ru:Chapter 01
    00:00:25.916 : ru:Chapter 02
    00:14:02.208 : ru:Chapter 03
    00:27:17.041 : ru:Chapter 04
    00:40:22.375 : ru:Chapter 05
    00:54:57.291 : ru:Chapter 06
    01:06:34.458 : ru:Chapter 07
    01:17:57.500 : ru:Chapter 08
    01:30:44.083 : ru:Chapter 09

    Релиз подготовлен 60 - fps



Вы не можете начинать темы
Вы не можете отвечать на сообщения
Вы не можете редактировать свои сообщения
Вы не можете удалять свои сообщения
Вы не можете голосовать в опросах
Вы не можете прикреплять файлы к сообщениям
Вы не можете скачивать файлы