[Цитировать]
Mr.West

-Годзилла / Godzilla (2014) BDRip [720р] | 60fps- Год выпуска: 2014
Производство: США, Япония / Warner Bros. Pictures, Toho Company
Жанр: Фантастика, Боевик, Триллер
Режиссер: Гарет Эдвардс
Продюсер: Боб Дюксэй, Джон Дж. Джашни, Мэри Пэрент
Актеры: Аарон Тейлор-Джонсон, С.Дж. Адамс, Кен Ватанабе, Брайан Крэнстон, Элизабет Олсен, Карсон Болд, Салли Хокинс, Жюльет Бинош, Дэвид Стрэтэйрн, Ричард Т. Джонс
Описание фильма:
Человечество случайно разбудило гигантское древнее существо, что повлекло за собой ужасающие последствия…
Перевод: Дублированный (Лицензия)
Субтитры: Вшитые не отключаемые
Язык субтитров: Русский (Forced)

Дата мировой премьеры: 8 мая 2014
Дата российской премьеры: 15 мая 2014, «Каро-Премьер»
Дата выхода DVD релиза: 18 сентября 2014, «CP Дистрибуция»
Дата выхода Blu-Ray релиза: 18 сентября 2014, «CP Дистрибуция»
Продолжительность: 02:03:07
Качество видео: BDRip 720p
Видеокодек: MPEG-4 AVC/H.264
Битрейт видео: ~4982 Kbps
Размер кадра: 1280x544
Аудио: AC3 5.1, 48.0 KHz, 448 Kbps - Русский

MediaInfo:

General
Unique ID : 214587390908464253755337946103218258506 (0xA17007370E9B7697B3CBA17A9B99424A)
Complete name : D:\Торренты\Godzilla 60fps.mkv
Format : Matroska
Format version : Version 2
File size : 4.76 GiB
Duration : 2h 3mn
Overall bit rate : 5 540 Kbps
Movie name : Godzilla (2014) 1080p BD-Remux
Encoded date : UTC 2014-09-16 15:46:25
Writing application : mkvmerge v6.9.1 ('Blue Panther') 64bit built on Apr 18 2014 18:23:38
Writing library : libebml v1.3.0 + libmatroska v1.4.1
Video
ID : 1
Format : AVC
Format/Info : Advanced Video Codec
Format profile : High@L4.1
Format settings, CABAC : Yes
Format settings, ReFrames : 6 frames
Codec ID : V_MPEG4/ISO/AVC
Duration : 2h 3mn
Bit rate : 4 982 Kbps
Width : 1 280 pixels
Height : 544 pixels
Display aspect ratio : 2.35:1
Frame rate mode : Constant
Frame rate : 59.880 fps
Original frame rate : 59.940 fps
Color space : YUV
Chroma subsampling : 4:2:0
Bit depth : 8 bits
Scan type : Progressive
Bits/(Pixel*Frame) : 0.119
Stream size : 4.28 GiB (90%)
Title : Release by mimok
Writing library : x264 core 125 r2208 d9d2288
Encoding settings : cabac=1 / ref=6 / deblock=0:0:0 / analyse=0x3:0x133 / me=umh / subme=8 / psy=1 / psy_rd=0.80:0.15 / mixed_ref=1 / me_range=20 / chroma_me=1 / trellis=2 / 8x8dct=1 / cqm=0 / deadzone=21,11 / fast_pskip=0 / chroma_qp_offset=-3 / threads=6 / lookahead_threads=1 / sliced_threads=0 / nr=0 / decimate=0 / interlaced=0 / bluray_compat=0 / constrained_intra=0 / bframes=7 / b_pyramid=2 / b_adapt=2 / b_bias=0 / direct=1 / weightb=1 / open_gop=0 / weightp=2 / keyint=600 / keyint_min=59 / scenecut=40 / intra_refresh=0 / rc=crf / mbtree=0 / crf=18.0 / qcomp=0.63 / qpmin=10 / qpmax=51 / qpstep=4 / ip_ratio=1.40 / pb_ratio=1.30 / aq=1:0.70
Default : Yes
Forced : No
Audio
ID : 2
Format : AC-3
Format/Info : Audio Coding 3
Mode extension : CM (complete main)
Format settings, Endianness : Big
Codec ID : A_AC3
Duration : 2h 3mn
Bit rate mode : Constant
Bit rate : 448 Kbps
Channel(s) : 6 channels
Channel positions : Front: L C R, Side: L R, LFE
Sampling rate : 48.0 KHz
Bit depth : 16 bits
Compression mode : Lossy
Stream size : 395 MiB (8%)
Title : Лицензия
Language : Russian
Default : Yes
Forced : No

Скринлист:

[Цитировать]
Гость

Mr.West,
Автор рипа?

[Цитировать]
Гость

Tiberiumsun69, По MI можно понять кто делал...

[Цитировать]
mimok

Mr.West, кинопоиск и IMDb не активны,исправьте

[Цитировать]
Mr.West

mimok, а как исправить у вас нельзя раздачи редактировать :help:

[Цитировать]
Kryl

поправил ...
 
Показать сообщения:    

Текущее время: 06-Дек 15:06

Часовой пояс: UTC + 3


Вы не можете начинать темы
Вы не можете отвечать на сообщения
Вы не можете редактировать свои сообщения
Вы не можете удалять свои сообщения
Вы не можете голосовать в опросах
Вы не можете прикреплять файлы к сообщениям
Вы не можете скачивать файлы