[Цитировать]
BOT2

-Название: Гнев
Оригинальное название: Tokarev
Год выпуска: 2014
Страна: США, Франция
Жанр: боевик, триллер, криминал
Продолжительность: 01:38:26
Перевод: Дубляж
Субтитры: русские (Полные), английские (Полные)-Режиссер: Пако Кабесас / Paco Cabezas-В ролях: Николас Кейдж (Paul Maguire), Рэйчел Николс (Vanessa Maguire), Макс Райан (Kane), Майкл МакГрэйди (Danny Doherty), Петер Стормаре (Francis O'Connell), Павел Личникофф (Chernov), Патрис Колс (Anton), Макс Фаулер (Mike), Обри Пиплз (Caitlin Maguire), Джек Фалахи (Evan), Уэстон Кейдж (Young Paul), Дэнни Гловер (Det. Peter St. John)-Описание:
Еще несколько лет назад Пол Магуаер раскаялся в былых преступлениях. Теперь он - честный бизнесмен и заботливый семьянин. Но криминальное прошлое не отпускает его. Однажды неизвестные врываются в дом Магуаера и жестоко убивают его дочь. Месть отца будет беспощадной...-Рейтинг
-Качество: BDRip-AVC 60fps
Формат: MKV
Видео кодек: AVC
Аудио кодек:AC3
Видео: AVC, 1024x432 (2.35:1), 4000 kbps, 59,940 fps, 0,151 bpp
Аудио: русский / AC3 / 5.1 / 48 kHz / 640 kbps / 16 bit |Дубляж|
Навигация по главам: есть- -

MI

General
Unique ID : 170873759304363431189778568782138573948 (0x808D16C717FDF4808E59CF779BC8047C)
Complete name : A:\Фильмы\Гнев (Токарев) BDRip-AVC 60fps R.G. HD-Films.mkv
Format : Matroska
Format version : Version 4 / Version 2
File size : 3.19 GiB
Duration : 1h 38mn
Overall bit rate : 4 636 Kbps
Movie name : Tiberiumsun69
Encoded date : UTC 2015-06-27 09:26:38
Writing application : mkvmerge v7.9.0 ('Birds') 64bit
Writing library : libebml v1.3.1 + libmatroska v1.4.2
Attachment : Yes
Video
ID : 1
Format : AVC
Format/Info : Advanced Video Codec
Format profile : High@L4.1
Format settings, CABAC : Yes
Format settings, ReFrames : 4 frames
Codec ID : V_MPEG4/ISO/AVC
Duration : 1h 38mn
Bit rate : 4 000 Kbps
Width : 1 024 pixels
Height : 432 pixels
Display aspect ratio : 2.35:1
Frame rate : 59.940 fps
Color space : YUV
Chroma subsampling : 4:2:0
Bit depth : 8 bits
Scan type : Progressive
Bits/(Pixel*Frame) : 0.151
Stream size : 2.68 GiB (84%)
Title : Tiberiumsun69
Writing library : x264 core 146 r2538 121396c
Encoding settings : cabac=1 / ref=4 / deblock=1:0:0 / analyse=0x3:0x113 / me=umh / subme=9 / psy=1 / psy_rd=1.00:0.10 / mixed_ref=1 / me_range=32 / chroma_me=1 / trellis=2 / 8x8dct=1 / cqm=0 / deadzone=21,11 / fast_pskip=0 / chroma_qp_offset=-3 / threads=12 / lookahead_threads=3 / sliced_threads=0 / nr=0 / decimate=1 / interlaced=0 / bluray_compat=0 / constrained_intra=0 / bframes=16 / b_pyramid=2 / b_adapt=2 / b_bias=0 / direct=3 / weightb=1 / open_gop=0 / weightp=2 / keyint=600 / keyint_min=59 / scenecut=40 / intra_refresh=0 / rc_lookahead=60 / rc=2pass / mbtree=1 / bitrate=4000 / ratetol=1.0 / qcomp=0.60 / qpmin=0 / qpmax=69 / qpstep=4 / cplxblur=20.0 / qblur=0.5 / vbv_maxrate=50000 / vbv_bufsize=62500 / nal_hrd=none / filler=0 / ip_ratio=1.40 / aq=1:1.00
Language : English
Default : Yes
Forced : No
Audio
ID : 2
Format : AC-3
Format/Info : Audio Coding 3
Mode extension : CM (complete main)
Codec ID : A_AC3
Duration : 1h 38mn
Bit rate mode : Constant
Bit rate : 640 Kbps
Channel(s) : 6 channels
Channel positions : Front: L C R, Side: L R, LFE
Sampling rate : 48.0 KHz
Bit depth : 16 bits
Compression mode : Lossy
Stream size : 451 MiB (14%)
Title : Дубляж
Language : Russian
Default : Yes
Forced : No
Text #1
ID : 3
Format : UTF-8
Codec ID : S_TEXT/UTF8
Codec ID/Info : UTF-8 Plain Text
Title : Полные
Language : Russian
Default : No
Forced : No
Text #2
ID : 4
Format : UTF-8
Codec ID : S_TEXT/UTF8
Codec ID/Info : UTF-8 Plain Text
Title : Полные
Language : English
Default : No
Forced : No
Menu
00:00:00.000 : en:Chapter 1
00:08:35.598 : en:Chapter 2
00:16:44.295 : en:Chapter 3
00:24:59.998 : en:Chapter 4
00:37:21.448 : en:Chapter 5
00:42:16.200 : en:Chapter 6
00:48:20.356 : en:Chapter 7
00:55:27.032 : en:Chapter 8
01:07:48.731 : en:Chapter 9
01:13:20.146 : en:Chapter 10
01:19:58.711 : en:Chapter 11
01:27:23.071 : en:Chapter 12

Скриншоты

[Цитировать]
K.O.

Рейтинг соответствует.
 
Показать сообщения:    

Текущее время: 05-Дек 05:27

Часовой пояс: UTC + 3


Вы не можете начинать темы
Вы не можете отвечать на сообщения
Вы не можете редактировать свои сообщения
Вы не можете удалять свои сообщения
Вы не можете голосовать в опросах
Вы не можете прикреплять файлы к сообщениям
Вы не можете скачивать файлы