Агент Ева / Ava (2020) BDRip 1080p | 60 fps Пятый элемент / The Fifth Element (1997) BDRip 1080p | 60 fps Властелин колец: Трилогия / The Lord of the Rings: Trilogy (2001-2003) BDRip-AVC | Extended Cut | 60 fps Форпост / The Outpost (2020) BDRip 1080p | 60 fps Поезд смерти / D-Railed (2018) BDRip 1080p | 60 fps Охота / The Hunt (2020) BDRip 1080p | 60 fps Вивариум / Vivarium (2019) BDRip 720p | 60 fps Ультрафиолет / Ultraviolet (2006) BDRip 1080p | 60 fps
  1. bot

    Longevity:
    6 years 4 months
    Posts:
    410
    Gender:
    Unknown
    «When faced with our darkest hour, hope is not a tactic»- Информация
    Название: Глубоководный горизонт
    Оригинальное название: Deepwater Horizon
    Год выхода: 2016
    Жанр: Боевик, триллер, драма
    Режиссер: Питер Берг
    Сценарий: Мэттью Сэнд, Мэттью Майкл Карнахан, Дэвид Рохд
    Продюсер: Лоренцо Ди Бонавентура, Марк Вахрадян, Марк Уолберг
    В ролях: Марк Уолберг, Курт Расселл, Джон Малкович, Джина Родригез, Дилан О`Брайэн, Кейт Хадсон, Итэн Сапли, Генри Фрост, Дуглас М. Гриффин, Сью-Линн Ансари, Брэд Лелэнд, Дж.Д. Эвермор
    --Сюжет:
    Отправляясь на очередную вахту и прощаясь с семьями, они не подозревали, что могут не вернуться… Это основанная на реальных событиях история о страшной аварии на нефтяной платформе «Глубоководный горизонт», которая произошла в 2010 году в Мексиканском заливе. Хроника беспримерного мужества и отваги перед лицом одной из самых страшных техногенных катастроф в мировой истории.- Страна: Гонконг, США
    Продолжительность: 01:47:17

    Файл
    Кодек: MPEG4/ISO/AVC/H.264
    Формат: MKV
    Качество: BDRip 720p | 60 fps
    Видео: 1280x534 | 59.940 fps | 3.1 Мбит/сек
    Аудио 1: AC3 | 5.1 | 48 kHz | 448 kbps | 16 bit | Дубляж |
    Аудио 2: AC3 | 5.1 | 48 kHz | 448 kbps | 16 bit | ENG |
    Субтитры: Русские, Eng

    MedifInfo

    Video
    ID : 1
    Format : AVC
    Format/Info : Advanced Video Codec
    Format profile : [email protected]
    Format settings, CABAC : Yes
    Format settings, ReFrames : 9 frames
    Codec ID : V_MPEG4/ISO/AVC
    Duration : 1 h 47 min
    Bit rate : 3 116 kb/s
    Width : 1 280 pixels
    Height : 534 pixels
    Display aspect ratio : 2.40:1
    Frame rate mode : Constant
    Frame rate : 59.940 (60000/1001) FPS
    Color space : YUV
    Chroma subsampling : 4:2:0
    Bit depth : 8 bits
    Scan type : Progressive
    Bits/(Pixel*Frame) : 0.076
    Stream size : 2.34 GiB (76%)
    Writing library : x264 core 146 r2538 121396c
    Encoding settings : cabac=1 / ref=9 / deblock=1:0:0 / analyse=0x3:0x113 / me=umh / subme=10 / psy=1 / psy_rd=1.00:0.00 / mixed_ref=1 / me_range=24 / chroma_me=1 / trellis=2 / 8x8dct=1 / cqm=0 / deadzone=21,11 / fast_pskip=0 / chroma_qp_offset=-2 / threads=12 / lookahead_threads=1 / sliced_threads=0 / nr=0 / decimate=1 / interlaced=0 / bluray_compat=0 / constrained_intra=0 / bframes=5 / b_pyramid=2 / b_adapt=2 / b_bias=0 / direct=3 / weightb=1 / open_gop=0 / weightp=2 / keyint=250 / keyint_min=25 / scenecut=40 / intra_refresh=0 / rc_lookahead=40 / rc=crf / mbtree=0 / crf=18.0 / qcomp=0.60 / qpmin=0 / qpmax=69 / qpstep=4 / vbv_maxrate=14000 / vbv_bufsize=14000 / crf_max=0.0 / nal_hrd=none / filler=0 / ip_ratio=1.40 / pb_ratio=1.30 / aq=3:0.70
    Language : English
    Default : Yes
    Forced : No
    Audio #1
    ID : 2
    Format : AC-3
    Format/Info : Audio Coding 3
    Mode extension : CM (complete main)
    Format settings, Endianness : Big
    Codec ID : A_AC3
    Duration : 1 h 47 min
    Bit rate mode : Constant
    Bit rate : 448 kb/s
    Channel(s) : 6 channels
    Channel positions : Front: L C R, Side: L R, LFE
    Sampling rate : 48.0 kHz
    Frame rate : 31.250 FPS (1536 spf)
    Compression mode : Lossy
    Stream size : 344 MiB (11%)
    Title : Dub
    Language : Russian
    Default : Yes
    Forced : No
    Audio #2
    ID : 3
    Format : AC-3
    Format/Info : Audio Coding 3
    Mode extension : CM (complete main)
    Format settings, Endianness : Big
    Codec ID : A_AC3
    Duration : 1 h 47 min
    Bit rate mode : Constant
    Bit rate : 448 kb/s
    Channel(s) : 6 channels
    Channel positions : Front: L C R, Side: L R, LFE
    Sampling rate : 48.0 kHz
    Frame rate : 31.250 FPS (1536 spf)
    Compression mode : Lossy
    Stream size : 344 MiB (11%)
    Title : Eng
    Language : English
    Default : No
    Forced : No
    Text #1
    ID : 4
    Format : UTF-8
    Codec ID : S_TEXT/UTF8
    Codec ID/Info : UTF-8 Plain Text
    Title : Rus full
    Language : Russian
    Default : No
    Forced : No
    Text #2
    ID : 5
    Format : UTF-8
    Codec ID : S_TEXT/UTF8
    Codec ID/Info : UTF-8 Plain Text
    Title : Eng full
    Language : English
    Default : No
    Forced : No
    Menu
    00:00:00.000 : en:(01)00:00:00:000
    00:07:01.211 : en:(02)00:07:01:211
    00:12:32.625 : en:(03)00:12:32:625
    00:19:34.463 : en:(04)00:19:34:463
    00:27:17.218 : en:(05)00:27:17:218
    00:34:52.632 : en:(06)00:34:52:632
    00:44:29.833 : en:(07)00:44:29:833
    00:48:04.922 : en:(08)00:48:04:922
    00:53:47.599 : en:(09)00:53:47:599
    00:58:05.148 : en:(10)00:58:05:148
    01:05:44.606 : en:(11)01:05:44:606
    01:10:06.868 : en:(12)01:10:06:868
    01:16:02.932 : en:(13)01:16:02:932
    01:20:44.381 : en:(14)01:20:44:381
    01:27:37.667 : en:(15)01:27:37:667
    01:31:37.823 : en:(16)01:31:37:823
    01:47:17.221 : en:(17)01:47:17:221
  2. Longevity:
    4 years 6 months
    Posts:
    10
    Gender:
    Unknown

    Я люблю ваши файлы загруженные в основном из-за размывание движения вы добавляете в кино, скрывающая артефакты, пожалуйста, продолжайте использовать эти настройки и добавления английский аудио!
    Удивляюсь Смеюсь
  3. Longevity:
    4 years 6 months
    Posts:
    10
    Gender:
    Unknown
    Пожалуйста, вы можете добавить BILLY Линна длинную прогулку тайма
    04-Feb-2017 14:58 (after 2 minutes)
  4. Longevity:
    5 years 1 month
    Posts:
    27
    Gender:
    Male
    Обалденный фильм,рекомендую! учитывая особенность реальных событий!
    22-Feb-2017 19:28 (after 18 days)


You cannot post new topics in this forum
You cannot reply to topics in this forum
You cannot edit your posts in this forum
You cannot delete your posts in this forum
You cannot vote in polls in this forum
You cannot attach files in this forum
You cannot download files in this forum