[Цитировать]
mimok

Глубокий мир мечты.Второе издание / Deep Dream Lounge.Second Edition (2010) BDRip 720p | 60fps- Год выпуска: 2010
Производство: Великобритания / DA Music
Жанр: Релакс, музыка, видовой-Описание фильма:
Второе издание.Фантастический анимационный видеоряд, выполненный в высоком качестве изображения, под аккомпанемент лёгкой фоновой музыки, обладающей объёмом и глубиной. Оригинальный способ создать все условия для настоящей релаксации, отвлечённости от внешнего мира и погружения в расслабляющий мир образов, звуков и приятных ощущений. Видео, предназначенное для релаксации, сочетаеющее в себе великолепную графику, исполненную в великолепном качестве и расслабляющую музыку в стиле лаунж. Непрерывный поток меняющихся форм, цветов и звуков, рождающие фантастические образы и погружающие в медитацию.-Перевод: Не требуется
Субтитры: отсутствуют- -Продолжительность: 01:15:37
Качество видео: BDRip 720p-Видеокодек: MPEG-4 AVC/H.264
Битрейт видео: ~ 5298 Кбит/сек
Размер кадра: 1280 x 720
Аудио#1: AC3 5.1, 48.0 KHz, 448 Kbps - English (Chill Tunes)
Аудио#2: AC3 2, 48.0 KHz, 256 Kbps - English (Deep Atmosphere)-

MediaInfo

Общее
Уникальный идентификатор : 246305215901842430615160168901187163793 (0xB94CA8B93B53C129B60F50AD3F4F5691)
Полное имя : D:\Торренты\Deep Dream Lounge [Second Edition] 60fps.mkv
Формат : Matroska
Версия формата : Version 2
Размер файла : 3,24 Гбайт
Продолжительность : 1 ч. 15 м.
Общий поток : 6124 Кбит/сек
Название фильма : Deep Dream Lounge [Second Edition] (2010) Blu-ray 1080i
Дата кодирования : UTC 2014-11-19 15:05:30
Программа кодирования : mkvmerge v6.9.1 ('Blue Panther') 64bit built on Apr 18 2014 18:23:38
Библиотека кодирования : libebml v1.3.0 + libmatroska v1.4.1
Видео
Идентификатор : 1
Формат : AVC
Формат/Информация : Advanced Video Codec
Профиль формата : High@L4.1
Параметр CABAC формата : Да
Параметр ReFrames формата : 6 кадров
Идентификатор кодека : V_MPEG4/ISO/AVC
Продолжительность : 1 ч. 15 м.
Битрейт : 5298 Кбит/сек
Ширина : 1280 пикселей
Высота : 720 пикселей
Соотношение сторон : 16:9
Режим частоты кадров : Постоянный
Частота кадров : 60,000 кадров/сек
Цветовое пространство : YUV
Субдискретизация насыщенности : 4:2:0
Битовая глубина : 8 бит
Тип развёртки : Прогрессивная
Бит/(Пиксели*Кадры) : 0.096
Размер потока : 2,80 Гбайт (87%)
Заголовок : Release by mimok
Библиотека кодирования : x264 core 125 r2208 d9d2288
Настройки программы : cabac=1 / ref=6 / deblock=0:0:0 / analyse=0x3:0x133 / me=umh / subme=8 / psy=1 / psy_rd=1.00:0.15 / mixed_ref=1 / me_range=20 / chroma_me=1 / trellis=2 / 8x8dct=1 / cqm=0 / deadzone=21,11 / fast_pskip=0 / chroma_qp_offset=-3 / threads=6 / lookahead_threads=1 / sliced_threads=0 / nr=0 / decimate=0 / interlaced=0 / bluray_compat=0 / constrained_intra=0 / bframes=8 / b_pyramid=2 / b_adapt=2 / b_bias=0 / direct=1 / weightb=1 / open_gop=0 / weightp=2 / keyint=600 / keyint_min=60 / scenecut=40 / intra_refresh=0 / rc=crf / mbtree=0 / crf=17.0 / qcomp=0.63 / qpmin=10 / qpmax=51 / qpstep=4 / ip_ratio=1.40 / pb_ratio=1.30 / aq=1:1.20
Default : Да
Forced : Нет
Аудио #1
Идентификатор : 2
Формат : AC-3
Формат/Информация : Audio Coding 3
Расширение режима : CM (complete main)
Параметр Endianness формата : Big
Идентификатор кодека : A_AC3
Продолжительность : 1 ч. 15 м.
Вид битрейта : Постоянный
Битрейт : 448 Кбит/сек
Каналы : 6 каналов
Расположение каналов : Front: L C R, Side: L R, LFE
Частота : 48,0 КГц
Битовая глубина : 16 бит
Метод сжатия : С потерями
Размер потока : 242 Мбайт (7%)
Заголовок : Chill Tunes
Язык : English
Default : Да
Forced : Нет
Аудио #2
Идентификатор : 3
Формат : AC-3
Формат/Информация : Audio Coding 3
Расширение режима : CM (complete main)
Параметр Endianness формата : Big
Идентификатор кодека : A_AC3
Продолжительность : 1 ч. 15 м.
Вид битрейта : Постоянный
Битрейт : 256 Кбит/сек
Каналы : 2 канала
Расположение каналов : Front: L R
Частота : 48,0 КГц
Битовая глубина : 16 бит
Метод сжатия : С потерями
Размер потока : 138 Мбайт (4%)
Заголовок : Deep Atmosphere
Язык : English
Default : Нет
Forced : Нет

Скринлист

Треклист

01. Oriental Loops
02. Floating Dreams
03. Liquid Dreams
04. Light Dreams
Скриншоты:

[Цитировать]
Kryl

Что то тебя на графику потянуло )

[Цитировать]
mimok

652Что то тебя на графику потянуло )
есть немного

[Цитировать]
ZHz

эта штука зомбирует, нэ?

[Цитировать]
mimok

ZHz, а это кому как повезёт :ag:

[Цитировать]
Kryl

как жаба в футураме :ag:

[Цитировать]
ZHz

mimok, посмотрел я сэмпл, и мне почему-то хочется мозгиииии!!!!!!
 
Показать сообщения:    

Текущее время: 05-Дек 05:26

Часовой пояс: UTC + 3


Вы не можете начинать темы
Вы не можете отвечать на сообщения
Вы не можете редактировать свои сообщения
Вы не можете удалять свои сообщения
Вы не можете голосовать в опросах
Вы не можете прикреплять файлы к сообщениям
Вы не можете скачивать файлы