[Цитировать]
mimok

Глубокий мир мечты / Deep Dream Lounge (2009) BDRip 720p | 60fps- Год выпуска: 2009
Производство: Великобритания / DA Music
Жанр: Релакс, музыка, видовой-Описание фильма:
Необыкновенное зрелище в совершенном, кристальном HD-качестве, специально созданное для этого видео, унесёт вас в фантастический виртуальный мир форм и красок. Наслаждайтесь эксклюзивным неторопливым видеорядом и объёмным звучанием, выбирая спокойную, расслабляющую музыку или прозрачную атмосферу обволакивающих звуков. Перетекающие формы, яркие цвета, фрактальные миры, изящные узоры, воображаемый клубный свет, сказочные ощущения и расслабляющие картины движения создадут в вашем доме экстравагантную атмосферу особого, изысканного вкуса.-Перевод: Не требуется
Субтитры: отсутствуют- -Продолжительность: 01:15:00
Качество видео: BDRip 720p-Видеокодек: MPEG-4 AVC/H.264
Битрейт видео: ~ 7919 Кбит/сек
Размер кадра: 1280 x 720
Аудио#1: AC3 5.1, 48.0 KHz, 512 Kbps - English (Chill Tunes)
Аудио#2: AC3 5.1, 48.0 KHz, 512 Kbps - English (Deep Atmosphere)-

MediaInfo

Общее
Уникальный идентификатор : 225067573834369242941445067656251984781 (0xA95270207E795584BFF45907BEBE4B8D)
Полное имя : D:\Торренты\Deep Dream Lounge 60fps.mkv
Формат : Matroska
Версия формата : Version 2
Размер файла : 4,78 Гбайт
Продолжительность : 1 ч. 15 м.
Общий поток : 9125 Кбит/сек
Название фильма : Deep Dream Lounge (2009) Blu-ray 1080i
Дата кодирования : UTC 2014-11-16 18:23:16
Программа кодирования : mkvmerge v6.9.1 ('Blue Panther') 64bit built on Apr 18 2014 18:23:38
Библиотека кодирования : libebml v1.3.0 + libmatroska v1.4.1
Видео
Идентификатор : 1
Формат : AVC
Формат/Информация : Advanced Video Codec
Профиль формата : High@L4.1
Параметр CABAC формата : Да
Параметр ReFrames формата : 6 кадров
Идентификатор кодека : V_MPEG4/ISO/AVC
Продолжительность : 1 ч. 15 м.
Битрейт : 7919 Кбит/сек
Ширина : 1280 пикселей
Высота : 720 пикселей
Соотношение сторон : 16:9
Режим частоты кадров : Постоянный
Частота кадров : 60,000 кадров/сек
Цветовое пространство : YUV
Субдискретизация насыщенности : 4:2:0
Битовая глубина : 8 бит
Тип развёртки : Прогрессивная
Бит/(Пиксели*Кадры) : 0.143
Размер потока : 4,15 Гбайт (87%)
Заголовок : Release by mimok
Библиотека кодирования : x264 core 125 r2208 d9d2288
Настройки программы : cabac=1 / ref=6 / deblock=0:0:0 / analyse=0x3:0x133 / me=umh / subme=8 / psy=1 / psy_rd=1.00:0.15 / mixed_ref=1 / me_range=20 / chroma_me=1 / trellis=2 / 8x8dct=1 / cqm=0 / deadzone=21,11 / fast_pskip=0 / chroma_qp_offset=-3 / threads=6 / lookahead_threads=1 / sliced_threads=0 / nr=0 / decimate=0 / interlaced=0 / bluray_compat=0 / constrained_intra=0 / bframes=8 / b_pyramid=2 / b_adapt=2 / b_bias=0 / direct=1 / weightb=1 / open_gop=0 / weightp=2 / keyint=600 / keyint_min=60 / scenecut=40 / intra_refresh=0 / rc=crf / mbtree=0 / crf=17.0 / qcomp=0.63 / qpmin=10 / qpmax=51 / qpstep=4 / ip_ratio=1.40 / pb_ratio=1.30 / aq=1:1.20
Default : Да
Forced : Нет
Аудио #1
Идентификатор : 2
Формат : AC-3
Формат/Информация : Audio Coding 3
Расширение режима : CM (complete main)
Параметр Endianness формата : Big
Идентификатор кодека : A_AC3
Продолжительность : 1 ч. 15 м.
Вид битрейта : Постоянный
Битрейт : 512 Кбит/сек
Каналы : 6 каналов
Расположение каналов : Front: L C R, Side: L R, LFE
Частота : 48,0 КГц
Битовая глубина : 16 бит
Метод сжатия : С потерями
Размер потока : 275 Мбайт (6%)
Заголовок : Chill Tunes
Язык : English
Default : Да
Forced : Нет
Аудио #2
Идентификатор : 3
Формат : AC-3
Формат/Информация : Audio Coding 3
Расширение режима : CM (complete main)
Параметр Endianness формата : Big
Идентификатор кодека : A_AC3
Продолжительность : 1 ч. 15 м.
Вид битрейта : Постоянный
Битрейт : 512 Кбит/сек
Каналы : 6 каналов
Расположение каналов : Front: L C R, Side: L R, LFE
Частота : 48,0 КГц
Битовая глубина : 16 бит
Метод сжатия : С потерями
Размер потока : 275 Мбайт (6%)
Заголовок : Deep Atmosphere
Язык : English
Default : Нет
Forced : Нет

Скринлист

Треклист

1. Manzana Kitchen - "Soul Sliders"
2. Mellow Vista - "Lush Life"
3. Handheld Mind - "Silky Strings"
4. Suomi Now - "Drops Of Honey"
5. Crush Pak - "Manhattan # 9"
6. Otinda Dub - "Echoes Of Now"
7. Miguel Lopez - Barcelona Nights"
8. Tokyo Lounge System - "Beam Me Down"
9. Southern Spice - "Eternal Waters"
Скриншоты:

[Цитировать]
maks412

Удивляюсь

[Цитировать]
kozhvit

Спасибо

[Цитировать]
666zinger666

на раздаче по просьбе Улыбаюсь
 
Показать сообщения:    

Текущее время: 10-Дек 19:35

Часовой пояс: UTC + 3


Вы не можете начинать темы
Вы не можете отвечать на сообщения
Вы не можете редактировать свои сообщения
Вы не можете удалять свои сообщения
Вы не можете голосовать в опросах
Вы не можете прикреплять файлы к сообщениям
Вы не можете скачивать файлы