[Цитировать]
Kryl

«Six hundred feet beneath the surface terror runs deep»- Информация о фильме
Название: Глубина
Оригинальное название: Below
Год выхода: 2002
Жанр: ужасы, триллер, детектив
Режиссер: Дэвид Туи
Сценарий: Лукас Сассмен, Даррен Аронофски, Дэвид Туи
Продюсер: Даррен Аронофски, Сью Баден-Поуелл, Эрик Уотсон
В ролях: Мэттью Дэвис, Брюс Гринвуд, Оливия Уильямс, Холт МакКэллани, Скотт Фоули, Зак Галифианакис, Джейсон Флеминг, Декстер Флетчер, Ник Чинланд, Эндрю Ховард
--О фильме:
Разгар Второй мировой войны. Американская подводная лодка «Тигровая акула», посланная на выручку оставшимся в живых членам экипажа британского плавучего госпиталя, вынуждена скрываться на глубине от шныряющих ближе к поверхности немецких субмарин.
Уходя ближе ко дну, подводники обнаруживают, что там, внизу, есть еще что-то — явно не нацистские судна, нечто необъяснимое и, возможно, сверхъестественное.
- - Страна: США
Продолжительность: 01:45:19
-- Файл
Кодек: MPEG4/ISO/AVC H.264
Формат: MKV
Качество: BDRip-AVC
Видео: 1024x576 (16:9) | 59.940 fps | 4.4 Мбит/сек
Аудио: AC3 | 5.1 | 48 kHz | 640 kbps | 16 bit | Дублированный |
Субтитры: Русские (Полные), английские

MedifInfo

Video
ID : 1
Format : AVC
Format/Info : Advanced Video Codec
Format profile : High@L4.1
Format settings, CABAC : Yes
Format settings, ReFrames : 4 frames
Codec ID : V_MPEG4/ISO/AVC
Duration : 1h 45mn
Bit rate : 4 450 Kbps
Width : 1 024 pixels
Height : 576 pixels
Display aspect ratio : 16:9
Frame rate : 59.940 fps
Color space : YUV
Chroma subsampling : 4:2:0
Bit depth : 8 bits
Scan type : Progressive
Bits/(Pixel*Frame) : 0.126
Stream size : 3.20 GiB (85%)
Writing library : x264 core 146 r2538 121396c
Encoding settings : cabac=1 / ref=3 / deblock=1:0:0 / analyse=0x3:0x113 / me=umh / subme=11 / psy=1 / psy_rd=1.00:0.10 / mixed_ref=1 / me_range=32 / chroma_me=1 / trellis=2 / 8x8dct=1 / cqm=0 / deadzone=21,11 / fast_pskip=0 / chroma_qp_offset=-3 / threads=12 / lookahead_threads=3 / sliced_threads=0 / nr=0 / decimate=1 / interlaced=0 / bluray_compat=0 / constrained_intra=0 / bframes=16 / b_pyramid=2 / b_adapt=2 / b_bias=0 / direct=3 / weightb=1 / open_gop=0 / weightp=2 / keyint=600 / keyint_min=59 / scenecut=40 / intra_refresh=0 / rc_lookahead=40 / rc=2pass / mbtree=0 / bitrate=4450 / ratetol=1.0 / qcomp=0.60 / qpmin=0 / qpmax=69 / qpstep=4 / cplxblur=20.0 / qblur=0.5 / vbv_maxrate=14000 / vbv_bufsize=14000 / nal_hrd=none / filler=0 / ip_ratio=1.40 / pb_ratio=1.30 / aq=1:1.00
Language : English
Default : Yes
Forced : No
Audio
ID : 2
Format : AC-3
Format/Info : Audio Coding 3
Mode extension : CM (complete main)
Codec ID : A_AC3
Duration : 1h 45mn
Bit rate mode : Constant
Bit rate : 640 Kbps
Channel(s) : 6 channels
Channel positions : Front: L C R, Side: L R, LFE
Sampling rate : 48.0 KHz
Bit depth : 16 bits
Compression mode : Lossy
Stream size : 482 MiB (13%)
Title : Дубляж
Language : Russian
Default : Yes
Forced : No
Text #1
ID : 3
Format : UTF-8
Codec ID : S_TEXT/UTF8
Codec ID/Info : UTF-8 Plain Text
Title : Полные
Language : Russian
Default : No
Forced : No
Text #2
ID : 4
Format : UTF-8
Codec ID : S_TEXT/UTF8
Codec ID/Info : UTF-8 Plain Text
Language : English
Default : No
Forced : No
Menu
00:00:00.000 : :Chapter 01
00:08:44.649 : :Chapter 02
00:16:26.694 : :Chapter 03
00:24:28.383 : :Chapter 04
00:34:30.902 : :Chapter 05
00:43:24.184 : :Chapter 06
00:51:45.268 : :Chapter 07
01:01:04.243 : :Chapter 08
01:09:42.303 : :Chapter 09
01:16:30.377 : :Chapter 10
01:25:17.153 : :Chapter 11
01:35:46.699 : :Chapter 12
 
Показать сообщения:    

Текущее время: 07-Дек 19:18

Часовой пояс: UTC + 3


Вы не можете начинать темы
Вы не можете отвечать на сообщения
Вы не можете редактировать свои сообщения
Вы не можете удалять свои сообщения
Вы не можете голосовать в опросах
Вы не можете прикреплять файлы к сообщениям
Вы не можете скачивать файлы