[Цитировать]
Kryl

«Генерал, ставший рабом. Раб, ставший гладиатором. Гладиатор, бросивший вызов империи»- Информация о фильме
Название: Гладиатор
Оригинальное название: Gladiator
Год выхода: 2000
Жанр: Боевик, драма
Режиссер: Ридли Скотт
Сценарий: Дэвид Францони, Джон Логан, Уильям Николсон
Продюсер: Дэвид Францони, Бранко Лустиг, Дуглас Уик
В ролях: Рассел Кроу , Хоакин Феникс , Конни Нильсен , Оливер Рид , Ричард Харрис , Дерек Джекоби , Джимон Хонсу , Дэвид Скофилд , Джон Шрэпнел , Томас Арана , Ральф Мёллер , Спенсер Трит Кларк
--О фильме:
В великой Римской империи не было военачальника, равного генералу Максимусу. Непобедимые легионы, которыми командовал этот благородный воин, боготворили его и могли последовать за ним даже в ад.
Но случилось так, что отважный Максимус, готовый сразиться с любым противником в честном бою, оказался бессилен против вероломных придворных интриг. Генерала предали и приговорили к смерти. Чудом избежав гибели, Максимус становится гладиатором.
Быстро снискав себе славу в кровавых поединках, он оказывается в знаменитом римском Колизее, на арене которого он встретится в смертельной схватке со своим заклятым врагом…
- - Страна: США, Великобритания
Продолжительность: 02:50:56
-- Файл
Кодек: MPEG4/ISO/AVC H.264
Формат: MKV
Качество: BDRip 720p
Видео: 1280x544 | at 59,940 fps | ~ 4.7 Мбит/сек
Аудио 1: AC3 | 5.1 | 48 kHz | 448 kbps | 16 bit | Дублированный |
Аудио 2: AC3 | 5.1 | 48 kHz | 640 kbps | 16 bit | Многоголосый закадровый, Телеканал «Интер» |
Аудио 3: AC3 | 5.1 | 48 kHz | 640 kbps | 16 bit | Авторский, А.Гаврилов |
Аудио 4: AC3 | 5.1 | 48 kHz | 640 kbps | 16 bit | ENG |

MedifInfo

Video
ID : 1
Format : AVC
Format/Info : Advanced Video Codec
Format profile : High@L4.1
Format settings, CABAC : Yes
Format settings, ReFrames : 9 frames
Codec ID : V_MPEG4/ISO/AVC
Duration : 2h 50mn
Bit rate : 4 729 Kbps
Width : 1 280 pixels
Height : 544 pixels
Display aspect ratio : 2.35:1
Frame rate : 59.940 fps
Color space : YUV
Chroma subsampling : 4:2:0
Bit depth : 8 bits
Scan type : Progressive
Bits/(Pixel*Frame) : 0.113
Stream size : 5.65 GiB (65%)
Title : Gladiator.(2000).BDRip.720p.[denis100].60fps.Extended Cut
Writing library : x264 core 146 r2538 121396c
Encoding settings : cabac=1 / ref=9 / deblock=1:0:0 / analyse=0x3:0x113 / me=umh / subme=11 / psy=1 / psy_rd=1.00:0.00 / mixed_ref=1 / me_range=24 / chroma_me=1 / trellis=2 / 8x8dct=1 / cqm=0 / deadzone=21,11 / fast_pskip=1 / chroma_qp_offset=-2 / threads=6 / lookahead_threads=1 / sliced_threads=0 / nr=0 / decimate=0 / interlaced=0 / bluray_compat=0 / constrained_intra=0 / bframes=7 / b_pyramid=2 / b_adapt=2 / b_bias=0 / direct=1 / weightb=1 / open_gop=0 / weightp=2 / keyint=250 / keyint_min=25 / scenecut=40 / intra_refresh=0 / rc_lookahead=40 / rc=crf / mbtree=0 / crf=16.9 / qcomp=0.60 / qpmin=0 / qpmax=69 / qpstep=4 / vbv_maxrate=50000 / vbv_bufsize=62500 / crf_max=0.0 / nal_hrd=none / filler=0 / ip_ratio=1.40 / pb_ratio=1.30 / aq=1:1.00
Language : English
Default : Yes
Forced : No
Audio #1
ID : 2
Format : AC-3
Format/Info : Audio Coding 3
Mode extension : CM (complete main)
Codec ID : A_AC3
Duration : 2h 50mn
Bit rate mode : Constant
Bit rate : 448 Kbps
Channel(s) : 6 channels
Channel positions : Front: L C R, Side: L R, LFE
Sampling rate : 48.0 KHz
Bit depth : 16 bits
Compression mode : Lossy
Stream size : 548 MiB (6%)
Title : Дублированный
Language : Russian
Default : Yes
Forced : No
Audio #2
ID : 3
Format : AC-3
Format/Info : Audio Coding 3
Mode extension : CM (complete main)
Codec ID : A_AC3
Duration : 2h 50mn
Bit rate mode : Constant
Bit rate : 640 Kbps
Channel(s) : 6 channels
Channel positions : Front: L C R, Side: L R, LFE
Sampling rate : 48.0 KHz
Bit depth : 16 bits
Compression mode : Lossy
Stream size : 783 MiB (9%)
Title : Многоголосый закадровый, Телеканал «Интер»
Language : Russian
Default : No
Forced : No
Audio #3
ID : 4
Format : AC-3
Format/Info : Audio Coding 3
Mode extension : CM (complete main)
Codec ID : A_AC3
Duration : 2h 50mn
Bit rate mode : Constant
Bit rate : 640 Kbps
Channel(s) : 6 channels
Channel positions : Front: L C R, Side: L R, LFE
Sampling rate : 48.0 KHz
Bit depth : 16 bits
Compression mode : Lossy
Stream size : 783 MiB (9%)
Title : Авторский, А.Гаврилов
Language : Russian
Default : No
Forced : No
Audio #4
ID : 5
Format : AC-3
Format/Info : Audio Coding 3
Mode extension : CM (complete main)
Codec ID : A_AC3
Duration : 2h 50mn
Bit rate mode : Constant
Bit rate : 640 Kbps
Channel(s) : 6 channels
Channel positions : Front: L C R, Side: L R, LFE
Sampling rate : 48.0 KHz
Bit depth : 16 bits
Compression mode : Lossy
Stream size : 783 MiB (9%)
Language : English
Default : No
Forced : No
Text #1
ID : 6
Format : UTF-8
Codec ID : S_TEXT/UTF8
Codec ID/Info : UTF-8 Plain Text
Language : Russian
Default : No
Forced : No
Text #2
ID : 7
Format : UTF-8
Codec ID : S_TEXT/UTF8
Codec ID/Info : UTF-8 Plain Text
Title : forced
Language : Russian
Default : Yes
Forced : No
Text #3
ID : 8
Format : UTF-8
Codec ID : S_TEXT/UTF8
Codec ID/Info : UTF-8 Plain Text
Title : Extended
Language : Russian
Default : No
Forced : No
Text #4
ID : 9
Format : UTF-8
Codec ID : S_TEXT/UTF8
Codec ID/Info : UTF-8 Plain Text
Language : English
Default : No
Forced : No
Text #5
ID : 10
Format : UTF-8
Codec ID : S_TEXT/UTF8
Codec ID/Info : UTF-8 Plain Text
Title : SDH
Language : English
Default : No
Forced : No
Menu
00:00:00.000 : en:00:00:00.000
00:07:13.308 : en:00:07:13.308
00:12:50.103 : en:00:12:50.103
00:18:44.790 : en:00:18:44.790
00:23:29.325 : en:00:23:29.325
00:32:58.393 : en:00:32:58.393
00:37:34.878 : en:00:37:34.878
00:40:50.740 : en:00:40:50.740
00:47:32.725 : en:00:47:32.725
00:51:35.843 : en:00:51:35.843
00:55:44.383 : en:00:55:44.383
01:02:21.279 : en:01:02:21.279
01:09:56.984 : en:01:09:56.984
01:19:08.285 : en:01:19:08.285
01:29:21.648 : en:01:29:21.648
01:37:11.784 : en:01:37:11.784
01:41:35.798 : en:01:41:35.798
01:51:58.837 : en:01:51:58.837
01:56:36.281 : en:01:56:36.281
02:00:43.486 : en:02:00:43.486
02:04:42.225 : en:02:04:42.225
02:12:19.014 : en:02:12:19.014
02:13:32.588 : en:02:13:32.588
02:24:15.438 : en:02:24:15.438
02:28:48.670 : en:02:28:48.670
02:34:20.751 : en:02:34:20.751
02:38:43.555 : en:02:38:43.555
02:42:57.726 : en:02:42:57.726
 
Показать сообщения:    

Текущее время: 08-Дек 19:07

Часовой пояс: UTC + 3


Вы не можете начинать темы
Вы не можете отвечать на сообщения
Вы не можете редактировать свои сообщения
Вы не можете удалять свои сообщения
Вы не можете голосовать в опросах
Вы не можете прикреплять файлы к сообщениям
Вы не можете скачивать файлы