[Цитировать]
Kryl

«Кто играет тобой?»- Информация
Название: Геймер
Оригинальное название: Gamer
Год выхода: 2009
Жанр: фантастика, боевик, триллер
Режиссер: Марк Невелдайн, Брайан Тейлор
Сценарий: Марк Невелдайн, Брайан Тейлор
Продюсер: Гари Лучези, Том Розенберг, Скип Уильямсон
В ролях: Джерард Батлер, Эмбер Валлетта, Майкл С. Холл, Кира Седжвик, Логан Лерман, Элисон Ломан, Терри Крюс, Рэмси Мур, Лудакрис, Аарон Йу
--Сюжет:

Действие фильма происходит в недалёком утопическом будущем, где высочайшее развитие нанотехнологий позволило технологическому гению Кену Кастлу соединить видеоигру с реалити-шоу и смоделировать ультрафункциональную, мультиплеерную игру «Убийцы», которая стала средой обитания местных преступников.
Джон Тиллман, приговоренный к пожизненному заключению за преступление, которого не совершал, должен принять участие в Игре, чтобы получить свободу. Для одного богатого молодого игрока Джон Тиллман это — Кэйбл, всего лишь сим, управляемый персонаж игры. Благодаря своим боевым способностям и физической силе, Кэйбл становится национальным героем и занимает первые позиции в игре.
Каждую неделю миллионы людей во всём мире в режиме онлайн следят за ним и сотней других смертников, которые участвуют в битвах игры. По мнению группы мятежников, которая противостоит Кастлу, его игра — это высокотехнологичное рабство, а он является тем критическим элементом, который необходимо уничтожить. Кэйбл/Тиллман оказался между двумя мощными противоборствующими силами, которые не заинтересованы в том, чтобы он выжил. С каждым шагом, за которым наблюдают миллионы, Джон Тилман сражается, чтобы получить свободу, восстановить свою личность и низвергнуть систему, которая его заключила в тюрьму.
- - Страна: США
Продолжительность: 01:34:50

Файл
Кодек: MPEG4/ISO/AVC H.264
Формат: MKV
Качество: BDRip-AVC | 60 fps
Видео: 1024x552 (1.855) | 59.940 fps | 4.8 Мбит/сек
Аудио: AC3 | 5.1 | 48 kHz | 640 kbps | 16 bit | Дубляж |
Субтитры: русские (Полные), английские (Полные)

MedifInfo

Video
ID : 1
Format : AVC
Format/Info : Advanced Video Codec
Format profile : High@L4.1
Format settings, CABAC : Yes
Format settings, ReFrames : 4 frames
Codec ID : V_MPEG4/ISO/AVC
Duration : 1h 34mn
Bit rate : 4 800 Kbps
Width : 1 024 pixels
Height : 552 pixels
Display aspect ratio : 1.855
Frame rate : 59.940 fps
Color space : YUV
Chroma subsampling : 4:2:0
Bit depth : 8 bits
Scan type : Progressive
Bits/(Pixel*Frame) : 0.142
Stream size : 3.11 GiB (86%)
Writing library : x264 core 146 r2538 121396c
Encoding settings : cabac=1 / ref=3 / deblock=1:0:0 / analyse=0x3:0x113 / me=umh / subme=9 / psy=1 / psy_rd=1.00:0.10 / mixed_ref=1 / me_range=32 / chroma_me=1 / trellis=2 / 8x8dct=1 / cqm=0 / deadzone=21,11 / fast_pskip=0 / chroma_qp_offset=-3 / threads=12 / lookahead_threads=3 / sliced_threads=0 / nr=0 / decimate=1 / interlaced=0 / bluray_compat=0 / constrained_intra=0 / bframes=16 / b_pyramid=2 / b_adapt=2 / b_bias=0 / direct=3 / weightb=1 / open_gop=0 / weightp=2 / keyint=250 / keyint_min=25 / scenecut=40 / intra_refresh=0 / rc_lookahead=40 / rc=2pass / mbtree=1 / bitrate=4800 / ratetol=1.0 / qcomp=0.60 / qpmin=0 / qpmax=69 / qpstep=4 / cplxblur=20.0 / qblur=0.5 / vbv_maxrate=14000 / vbv_bufsize=14000 / nal_hrd=none / filler=0 / ip_ratio=1.40 / aq=1:1.00
Language : English
Default : Yes
Forced : No
DURATION : 01:34:50.624000000
NUMBER_OF_FRAMES : 341096
NUMBER_OF_BYTES : 3410921315
_STATISTICS_WRITING_APP : mkvmerge v8.8.0 ('Wind at my back') 64bit
_STATISTICS_WRITING_DATE_UTC : 2016-02-06 02:09:45
_STATISTICS_TAGS : BPS DURATION NUMBER_OF_FRAMES NUMBER_OF_BYTES
Audio
ID : 2
Format : AC-3
Format/Info : Audio Coding 3
Mode extension : CM (complete main)
Codec ID : A_AC3
Duration : 1h 34mn
Bit rate mode : Constant
Bit rate : 640 Kbps
Channel(s) : 6 channels
Channel positions : Front: L C R, Side: L R, LFE
Sampling rate : 48.0 KHz
Bit depth : 16 bits
Compression mode : Lossy
Delay relative to video : 1s 500ms
Stream size : 434 MiB (12%)
Title : Дубляж
Language : Russian
Default : Yes
Forced : No
Text #1
ID : 3
Format : UTF-8
Codec ID : S_TEXT/UTF8
Codec ID/Info : UTF-8 Plain Text
Title : Полные
Language : Russian
Default : No
Forced : No
Text #2
ID : 4
Format : UTF-8
Codec ID : S_TEXT/UTF8
Codec ID/Info : UTF-8 Plain Text
Title : Полные
Language : English
Default : No
Forced : No
Menu
00:00:00.000 : en:Chapter 1
00:05:00.000 : en:Chapter 2
00:10:00.000 : en:Chapter 3
00:15:00.000 : en:Chapter 4
00:20:00.000 : en:Chapter 5
00:25:00.000 : en:Chapter 6
00:30:00.000 : en:Chapter 7
00:35:00.000 : en:Chapter 8
00:40:00.000 : en:Chapter 9
00:45:00.000 : en:Chapter 10
00:50:00.000 : en:Chapter 11
00:55:00.000 : en:Chapter 12
01:00:00.000 : en:Chapter 13
01:05:00.000 : en:Chapter 14
01:10:00.000 : en:Chapter 15
01:15:00.000 : en:Chapter 16
01:20:00.000 : en:Chapter 17
01:25:00.000 : en:Chapter 18
01:30:00.000 : en:Chapter 19
 
Показать сообщения:    

Текущее время: 20-Окт 02:52

Часовой пояс: UTC + 3


Вы не можете начинать темы
Вы не можете отвечать на сообщения
Вы не можете редактировать свои сообщения
Вы не можете удалять свои сообщения
Вы не можете голосовать в опросах
Вы не можете прикреплять файлы к сообщениям
Вы не можете скачивать файлы