-Название: Герой
Оригинальное название: Ying xiong
Год выпуска: 2002
Страна: Китай, Гонконг
Жанр: фэнтези, боевик, драма, приключения
Продолжительность: 01:39:12
Перевод: Профессиональный многоголосый
Субтитры: русские (Форсированные), русские (Полные), английские (Полные)-Режиссер: Чжан Имоу / Zhang Yimou-В ролях: Джет Ли (Nameless), Тони Люн Чу Вай (Broken Sword), Мэгги Чун (Flying Snow), Чжан Цзыи (Moon), Донни Ен (Sky), Чэнь Даомин (Qin Emperor), Чжунъюань Лью (Old scholar), Чжэн Тяньюн (Old Servant), Янь Цинь (Prime Minister), Бинь Ся (Qin Guard #4), Цао Хуа (Qin Guard #2), Хэй Цзы (Qin Guard #1)-Описание:
Китай расколот на княжества, но уже есть лидер, который хочет покорить соседей и стать императором объединенной страны. К нему засланы убийцы, безукоризненно владеющие боевыми искусствами; у них фольклорные имена Сломанный Меч, Летящий Снег и Небо.
Их противник обозначен как Безымянный, он хочет защитить императора. Его разговор с Всесильным образует раму, скрепляющую несколько ретроспектив - поединков с убийцами. Он рассказывает об этих поединках как сказку, где истину не отличишь от выдумки. Своя версия есть и у императора.-Рейтинг

imdb.com: 7.90 (132 927)
MPAA: PG-13 - Детям до 13 лет просмотр не желателен-Автор рипа:Tiberiumsun69
-Качество: BDRip 1080p / 60 FPS
Формат: MKV
Видео кодек: AVC
Аудио кодек:AC3
Видео: AVC, 1920x816, 13432 kbps, 59,940 fps
Аудио №1: русский / AC3 / 2.0 / 48 kHz / 192 kbps / 16 bit |Многоголосый, закадровый ОРТ|
Аудио №2: русский / AC3 / 5.1 / 48 kHz / 448 kbps / 16 bit |Многоголосый, закадровый Пирамида|
Аудио №3: русский / AC3 / 2.0 / 48 kHz / 192 kbps / 16 bit |Двухголосный, закадровый DVD|
Аудио №4: русский / AC3 / 5.1 / 48 kHz / 640 kbps / 16 bit |Многоголоснй, закадровый Киномания|
Аудио №5: китайский / AC3 / 5.1 / 48 kHz / 640 kbps / 16 bit
Навигация по главам: есть- -

MI

General
Unique ID : 245125187205417400250179718473699974081 (0xB86964D12430BF47A61565C5031E5BC1)
Complete name : A:1080p 60fpsГерой 1080p 60fps.mkv
Format : Matroska
Format version : Version 4 / Version 2
File size : 11.0 GiB
Duration : 1h 39mn
Overall bit rate : 15.9 Mbps
Movie name : = MediaClub = rip by Painter
Encoded date : UTC 2014-09-29 14:23:34
Writing application : mkvmerge v6.9.1 ('Blue Panther') 64bit built on Apr 18 2014 18:23:38
Writing library : libebml v1.3.0 + libmatroska v1.4.1
Video
ID : 1
Format : AVC
Format/Info : Advanced Video Codec
Format profile : High@L4.1
Format settings, CABAC : Yes
Format settings, ReFrames : 4 frames
Codec ID : V_MPEG4/ISO/AVC
Duration : 1h 39mn
Bit rate : 13.4 Mbps
Width : 1 920 pixels
Height : 816 pixels
Display aspect ratio : 2.35:1
Frame rate : 59.940 fps
Color space : YUV
Chroma subsampling : 4:2:0
Bit depth : 8 bits
Scan type : Progressive
Bits/(Pixel*Frame) : 0.143
Stream size : 9.31 GiB (85%)
Writing library : x264 core 130 r2273 b3065e6
Encoding settings : cabac=1 / ref=4 / deblock=1:0:0 / analyse=0x3:0 / me=umh / subme=9 / psy=1 / psy_rd=0.00:0.00 / mixed_ref=1 / me_range=42 / chroma_me=0 / trellis=1 / 8x8dct=1 / cqm=0 / deadzone=21,11 / fast_pskip=0 / chroma_qp_offset=0 / threads=12 / lookahead_threads=1 / sliced_threads=0 / nr=0 / decimate=0 / interlaced=0 / bluray_compat=0 / constrained_intra=0 / bframes=5 / b_pyramid=2 / b_adapt=2 / b_bias=0 / direct=1 / weightb=1 / open_gop=0 / weightp=2 / keyint=594 / keyint_min=59 / scenecut=40 / intra_refresh=0 / rc=crf / mbtree=0 / crf=16.0 / qcomp=0.60 / qpmin=0 / qpmax=69 / qpstep=4 / ip_ratio=1.40 / pb_ratio=1.30 / aq=1:0.90
Language : English
Default : Yes
Forced : No
Audio #1
ID : 2
Format : AC-3
Format/Info : Audio Coding 3
Mode extension : CM (complete main)
Codec ID : A_AC3
Duration : 1h 39mn
Bit rate mode : Constant
Bit rate : 192 Kbps
Channel(s) : 2 channels
Channel positions : Front: L R
Sampling rate : 48.0 KHz
Bit depth : 16 bits
Compression mode : Lossy
Stream size : 136 MiB (1%)
Title : Многоголосый, закадровый ОРТ
Language : Russian
Default : Yes
Forced : No
Audio #2
ID : 3
Format : AC-3
Format/Info : Audio Coding 3
Mode extension : CM (complete main)
Codec ID : A_AC3
Duration : 1h 39mn
Bit rate mode : Constant
Bit rate : 448 Kbps
Channel(s) : 6 channels
Channel positions : Front: L C R, Side: L R, LFE
Sampling rate : 48.0 KHz
Bit depth : 16 bits
Compression mode : Lossy
Stream size : 318 MiB (3%)
Title : Многоголосый, закадровый Пирамида
Language : Russian
Default : No
Forced : No
Audio #3
ID : 4
Format : AC-3
Format/Info : Audio Coding 3
Mode extension : CM (complete main)
Codec ID : A_AC3
Duration : 1h 39mn
Bit rate mode : Constant
Bit rate : 192 Kbps
Channel(s) : 2 channels
Channel positions : Front: L R
Sampling rate : 48.0 KHz
Bit depth : 16 bits
Compression mode : Lossy
Stream size : 136 MiB (1%)
Title : Двухголосый, закадровый DVD
Language : Russian
Default : No
Forced : No
Audio #4
ID : 5
Format : AC-3
Format/Info : Audio Coding 3
Mode extension : CM (complete main)
Codec ID : A_AC3
Duration : 1h 39mn
Bit rate mode : Constant
Bit rate : 640 Kbps
Channel(s) : 6 channels
Channel positions : Front: L C R, Side: L R, LFE
Sampling rate : 48.0 KHz
Bit depth : 16 bits
Compression mode : Lossy
Stream size : 454 MiB (4%)
Title : Многоголосый, закадровый Киномания
Language : Russian
Default : No
Forced : No
Audio #5
ID : 6
Format : AC-3
Format/Info : Audio Coding 3
Mode extension : CM (complete main)
Codec ID : A_AC3
Duration : 1h 39mn
Bit rate mode : Constant
Bit rate : 640 Kbps
Channel(s) : 6 channels
Channel positions : Front: L C R, Side: L R, LFE
Sampling rate : 48.0 KHz
Bit depth : 16 bits
Compression mode : Lossy
Stream size : 454 MiB (4%)
Title : Оригинал
Language : Chinese
Default : No
Forced : No
Text #1
ID : 7
Format : UTF-8
Codec ID : S_TEXT/UTF8
Codec ID/Info : UTF-8 Plain Text
Title : Форсированные
Language : Russian
Default : Yes
Forced : No
Text #2
ID : 8
Format : UTF-8
Codec ID : S_TEXT/UTF8
Codec ID/Info : UTF-8 Plain Text
Title : Полные
Language : Russian
Default : No
Forced : No
Text #3
ID : 9
Format : UTF-8
Codec ID : S_TEXT/UTF8
Codec ID/Info : UTF-8 Plain Text
Title : Полные
Language : English
Default : No
Forced : No
Menu
00:00:00.000 : :Chapter 01
00:07:40.835 : :Chapter 02
00:15:31.221 : :Chapter 03
00:23:21.483 : :Chapter 04
00:28:39.926 : :Chapter 05
00:34:48.669 : :Chapter 06
00:40:00.606 : :Chapter 07
00:48:02.671 : :Chapter 08
00:57:14.514 : :Chapter 09
01:06:33.864 : :Chapter 10
01:15:46.041 : :Chapter 11
01:23:30.380 : :Chapter 12
01:29:18.269 : :Chapter 13
01:33:38.654 : :Chapter 14
01:39:11.904 : :Chapter 15

Скриншоты

Просьба к переливающим на другие сайты, в оформлении указывайте пожалуйста авторство рипа - Tiberiumsun69
 
Показать сообщения:    

Текущее время: 18-Окт 14:11

Часовой пояс: UTC + 3


Вы не можете начинать темы
Вы не можете отвечать на сообщения
Вы не можете редактировать свои сообщения
Вы не можете удалять свои сообщения
Вы не можете голосовать в опросах
Вы не можете прикреплять файлы к сообщениям
Вы не можете скачивать файлы