1. Longevity:
    4 years 8 months
    Posts:
    314
    Gender:
    Male
    Заказать фильмы, клипы или любое другое видео в качестве 60fps может каждый!!!
    Стоимость одного видео 50руб. !!!
    Пишите Талямба в личку, всё обсудите...
    Гений (1991) WEB-DLRip 720p | 60 fps Информация
    Название: Гений
    Оригинальное название: Гений
    Год выхода: 1991
    Жанр: Комедия, криминал
    Режиссер: Виктор Сергеев
    В ролях: Александр Абдулов, Иннокентий Смоктуновский, Лариса Белогурова, Юрий Кузнецов, Валентина Талызина, Сергей Проханов, Анатолий Кузнецов, Альгис Матулёнис, Виктор Ильичев, Виктор Смирно
    Страна: СССР
    Продолжительность: 1 ч. 08 м. 26 с. + 1 ч. 24 м. 27 с.
    -- Сюжет:
    Герой фильма, в прошлом талантливый физик электронщик, а ныне директор овощного магазина, имеет криминальное хобби. Его изобретательные и технические великолепные операции задевают интересы не только правоохранительных органов, но и кровожадных мафиозных структур. -- Файл
    Кодек: V_MPEG4/ISO/AVC
    Формат: MKV
    Качество: WEB-DLRip 720p | 60 fps
    Видео: 960 x 720 (4:3) | 60,000 fps | 25.0 Мбит/сек
    Аудио 1: AC3, 6 ch, 448 Кбит/с
    Аудио 2: AC3, 1 ch, 224 Кбит/с

    Часть1

    Общее
    Уникальный идентификатор : 184944481908372726244935124172872471654 (0x8B2302F69F3618AF9A30DBB30A01D466)
    Полное имя : D:\Movie\Гений_1991-WEB-DLRip-720p\Гений-1.mkv
    Формат : Matroska
    Версия формата : Version 2
    Размер файла : 12,3 Гбайт
    Продолжительность : 1 ч. 8 м.
    Общий поток : 25,7 Мбит/сек
    Дата кодирования : UTC 2021-09-24 04:58:01
    Программа кодирования : mkvmerge v5.8.0 ('No Sleep / Pillow') built on Sep 2 2012 15:37:04
    Библиотека кодирования : libebml v1.2.3 + libmatroska v1.3.0
    Attachments : Poster.jpg
    Видео
    Идентификатор : 1
    Формат : AVC
    Формат/Информация : Advanced Video Codec
    Профиль формата : [email protected]
    Параметр CABAC формата : Да
    Параметр ReFrames формата : 5 кадров
    Режим смешивания : Header stripping
    Идентификатор кодека : V_MPEG4/ISO/AVC
    Продолжительность : 1 ч. 8 м.
    Битрейт : 25,0 Мбит/сек
    Ширина : 960 пикселей
    Высота : 720 пикселей
    Соотношение сторон : 4:3
    Режим частоты кадров : Постоянный
    Частота кадров : 60,000 кадров/сек
    Цветовое пространство : YUV
    Субдискретизация насыщенности : 4:2:0
    Битовая глубина : 8 бит
    Тип развёртки : Прогрессивная
    Бит/(Пиксели*Кадры) : 0.603
    Размер потока : 11,7 Гбайт (95%)
    Библиотека кодирования : x264 core 146 r2538 121396c
    Настройки программы : cabac=1 / ref=5 / deblock=1:0:0 / analyse=0x3:0x113 / me=umh / subme=8 / psy=1 / psy_rd=1.00:0.25 / mixed_ref=1 / me_range=32 / chroma_me=1 / trellis=1 / 8x8dct=1 / cqm=0 / deadzone=6,6 / fast_pskip=1 / chroma_qp_offset=-4 / threads=12 / lookahead_threads=3 / sliced_threads=0 / nr=0 / decimate=0 / interlaced=0 / bluray_compat=0 / constrained_intra=0 / bframes=3 / b_pyramid=2 / b_adapt=2 / b_bias=0 / direct=3 / weightb=1 / open_gop=0 / weightp=2 / keyint=600 / keyint_min=60 / scenecut=40 / intra_refresh=0 / rc_lookahead=50 / rc=2pass / mbtree=1 / bitrate=25000 / ratetol=1.0 / qcomp=0.80 / qpmin=0 / qpmax=69 / qpstep=4 / cplxblur=20.0 / qblur=0.5 / vbv_maxrate=50000 / vbv_bufsize=50000 / nal_hrd=none / filler=0 / ip_ratio=1.10 / aq=1:0.50
    Язык : English
    Default : Да
    Forced : Нет
    Аудио #1
    Идентификатор : 2
    Формат : AC-3
    Формат/Информация : Audio Coding 3
    Расширение режима : CM (complete main)
    Параметр Endianness формата : Big
    Режим смешивания : Header stripping
    Идентификатор кодека : A_AC3
    Продолжительность : 1 ч. 8 м.
    Вид битрейта : Постоянный
    Битрейт : 448 Кбит/сек
    Каналы : 6 каналов
    Расположение каналов : Front: L C R, Side: L R, LFE
    Частота : 48,0 КГц
    Частота кадров : 31,250 кадров/сек (1536 spf)
    Битовая глубина : 16 бит
    Метод сжатия : С потерями
    Размер потока : 219 Мбайт (2%)
    Язык : Russian
    Default : Да
    Forced : Нет
    Аудио #2
    Идентификатор : 3
    Формат : AC-3
    Формат/Информация : Audio Coding 3
    Расширение режима : CM (complete main)
    Параметр Endianness формата : Big
    Режим смешивания : Header stripping
    Идентификатор кодека : A_AC3
    Продолжительность : 1 ч. 8 м.
    Вид битрейта : Постоянный
    Битрейт : 224 Кбит/сек
    Каналы : 1 канал
    Расположение каналов : Front: C
    Частота : 48,0 КГц
    Частота кадров : 31,250 кадров/сек (1536 spf)
    Битовая глубина : 16 бит
    Метод сжатия : С потерями
    Размер потока : 110 Мбайт (1%)
    Язык : Russian
    Default : Нет
    Forced : Нет
    Меню
    00:00:00.000 : en:Chapter 1
    00:05:34.600 : en:Chapter 2
    00:13:29.760 : en:Chapter 3
    00:19:39.080 : en:Chapter 4
    00:25:37.960 : en:Chapter 5
    00:33:29.520 : en:Chapter 6
    00:44:26.480 : en:Chapter 7
    00:57:05.520 : en:Chapter 8
    01:04:49.960 : en:Chapter 9

    Часть2

    Общее
    Уникальный идентификатор : 186100921500454752871428440284936882405 (0x8C01BBD65B6514A69D0D2850B05D48E5)
    Полное имя : D:\Movie\Гений_1991-WEB-DLRip-720p\Гений-2.mkv
    Формат : Matroska
    Версия формата : Version 2
    Размер файла : 15,1 Гбайт
    Продолжительность : 1 ч. 24 м.
    Общий поток : 25,7 Мбит/сек
    Дата кодирования : UTC 2021-09-24 04:59:55
    Программа кодирования : mkvmerge v5.8.0 ('No Sleep / Pillow') built on Sep 2 2012 15:37:04
    Библиотека кодирования : libebml v1.2.3 + libmatroska v1.3.0
    Attachments : Poster.jpg
    Видео
    Идентификатор : 1
    Формат : AVC
    Формат/Информация : Advanced Video Codec
    Профиль формата : [email protected]
    Параметр CABAC формата : Да
    Параметр ReFrames формата : 5 кадров
    Режим смешивания : Header stripping
    Идентификатор кодека : V_MPEG4/ISO/AVC
    Продолжительность : 1 ч. 24 м.
    Битрейт : 25,0 Мбит/сек
    Ширина : 960 пикселей
    Высота : 720 пикселей
    Соотношение сторон : 4:3
    Режим частоты кадров : Постоянный
    Частота кадров : 60,000 кадров/сек
    Цветовое пространство : YUV
    Субдискретизация насыщенности : 4:2:0
    Битовая глубина : 8 бит
    Тип развёртки : Прогрессивная
    Бит/(Пиксели*Кадры) : 0.603
    Размер потока : 14,4 Гбайт (95%)
    Библиотека кодирования : x264 core 146 r2538 121396c
    Настройки программы : cabac=1 / ref=5 / deblock=1:0:0 / analyse=0x3:0x113 / me=umh / subme=8 / psy=1 / psy_rd=1.00:0.25 / mixed_ref=1 / me_range=32 / chroma_me=1 / trellis=1 / 8x8dct=1 / cqm=0 / deadzone=6,6 / fast_pskip=1 / chroma_qp_offset=-4 / threads=12 / lookahead_threads=3 / sliced_threads=0 / nr=0 / decimate=0 / interlaced=0 / bluray_compat=0 / constrained_intra=0 / bframes=3 / b_pyramid=2 / b_adapt=2 / b_bias=0 / direct=3 / weightb=1 / open_gop=0 / weightp=2 / keyint=600 / keyint_min=60 / scenecut=40 / intra_refresh=0 / rc_lookahead=50 / rc=2pass / mbtree=1 / bitrate=25000 / ratetol=1.0 / qcomp=0.80 / qpmin=0 / qpmax=69 / qpstep=4 / cplxblur=20.0 / qblur=0.5 / vbv_maxrate=50000 / vbv_bufsize=50000 / nal_hrd=none / filler=0 / ip_ratio=1.10 / aq=1:0.50
    Язык : English
    Default : Да
    Forced : Нет
    Аудио #1
    Идентификатор : 2
    Формат : AC-3
    Формат/Информация : Audio Coding 3
    Расширение режима : CM (complete main)
    Параметр Endianness формата : Big
    Режим смешивания : Header stripping
    Идентификатор кодека : A_AC3
    Продолжительность : 1 ч. 24 м.
    Вид битрейта : Постоянный
    Битрейт : 448 Кбит/сек
    Каналы : 6 каналов
    Расположение каналов : Front: L C R, Side: L R, LFE
    Частота : 48,0 КГц
    Частота кадров : 31,250 кадров/сек (1536 spf)
    Битовая глубина : 16 бит
    Метод сжатия : С потерями
    Размер потока : 271 Мбайт (2%)
    Язык : Russian
    Default : Да
    Forced : Нет
    Аудио #2
    Идентификатор : 3
    Формат : AC-3
    Формат/Информация : Audio Coding 3
    Расширение режима : CM (complete main)
    Параметр Endianness формата : Big
    Режим смешивания : Header stripping
    Идентификатор кодека : A_AC3
    Продолжительность : 1 ч. 24 м.
    Вид битрейта : Постоянный
    Битрейт : 224 Кбит/сек
    Каналы : 1 канал
    Расположение каналов : Front: C
    Частота : 48,0 КГц
    Частота кадров : 31,250 кадров/сек (1536 spf)
    Битовая глубина : 16 бит
    Метод сжатия : С потерями
    Размер потока : 135 Мбайт (1%)
    Язык : Russian
    Default : Нет
    Forced : Нет
    Меню
    00:00:00.000 : en:Chapter 1
    00:11:24.080 : en:Chapter 2
    00:14:41.400 : en:Chapter 3
    00:26:08.960 : en:Chapter 4
    00:37:23.560 : en:Chapter 5
    00:41:18.200 : en:Chapter 6
    00:49:48.040 : en:Chapter 7
    00:56:30.800 : en:Chapter 8
    01:08:32.040 : en:Chapter 9
    01:13:24.080 : en:Chapter 10

    Release was prepared by 60-fps.org



    Last edited by Nurpus on 2021-09-26 08:29; edited 2 times in total
  2. Longevity:
    3 years 5 months
    Posts:
    91
    Gender:
    Male
    Фильм шедевр! Огромное спасибо и заказчику и релизёру!
    03-Mar-2021 09:36 (after 17 hours)


You cannot post new topics in this forum
You cannot reply to topics in this forum
You cannot edit your posts in this forum
You cannot delete your posts in this forum
You cannot vote in polls in this forum
You cannot attach files in this forum
You cannot download files in this forum