[Цитировать]
Kryl

Серия фильмов о Гарри Поттере — серия фильмов, основанных на романах о Гарри Поттере английской писательницы Д. К. Роулинг. Серия выпущена компанией Warner Bros. и состоит из 8 фильмов в жанре фэнтези, начиная с Гарри Поттер и философский камень (2001) и заканчивая Гарри Поттер и Дары Смерти: часть 2 (2011). Франшиза занимает 2 место в списке самых прибыльных серий фильмов с 7,7 млрд $ мировой прибыли.
Все фильмы находятся в списке 50 самых кассовых фильмов в мире за всю историю кинематографа. Серия фильмов спродюсирована Дэвидом Хейманом, а Дэниел Рэдклифф, Эмма Уотсон и Руперт Гринт сыграли роли трёх главных героев Гарри Поттера, Гермионы Грейнджер и Рона Уизли. Над серией работали 4 режиссёра: Крис Коламбус, Альфонсо Куарон, Майкл Ньюэлл и Дэвид Йейтс.
Гарри Поттер и Дары смерти — седьмая, заключительная книга и единственная из серии, которая была поделена на два полнометражных фильма. Первая часть вышла в ноябре 2010 года, а вторая — в июле 2011 года. Возрастные ограничения всех восьми фильмов — 12+ (то есть для зрителей, достигших возраста двенадцати лет).

Гарри Поттер и философский камень / Harry Potter and the Sorcerer's Stone

«Путешествие в твою мечту»- Информация о фильме
Название: Гарри Поттер и философский камень
Оригинальное название: Harry Potter and the Sorcerer's Stone
Год выхода: 2001
Жанр: Фэнтези, приключения, семейный
Режиссер: Крис Коламбус
Сценарий: Стивен Кловз, Дж.К. Роулинг
Продюсер: Дэвид Хейман, Тодд Арноу, Майкл Барнатан
В ролях: Дэниел Рэдклифф, Эмма Уотсон, Руперт Гринт, Ричард Харрис, Алан Рикман, Мэгги Смит, Робби Колтрейн, Саундерс Триплетс, Фиона Шоу, Гарри Меллинг, Ричард Гриффитс, Дерек Дэмэн, Ян Харт
--О фильме:
Жизнь десятилетнего Гарри Поттера нельзя назвать сладкой: его родители умерли, едва ему исполнился год, а от дяди и тётки, взявших сироту на воспитание, достаются лишь тычки да подзатыльники. Но в одиннадцатый день рождения Гарри всё меняется. Странный гость, неожиданно появившийся на пороге, приносит письмо, из которого мальчик узнаёт, что на самом деле он волшебник и принят в Хогвартс — школу магии. А уже через пару недель Гарри будет мчаться в поезде Хогвартс-экспресс навстречу новой жизни, где его ждут невероятные приключения, верные друзья и самое главное — ключ к разгадке тайны смерти его родителей.- - Страна: Великобритания, США
Продолжительность: 02:38:50
-- Файл
Кодек: MPEG4/ISO/AVC H.264
Формат: MKV
Качество: BDRip-AVC
Видео: 1024x424 (2.40:1) | 59.940 fps | 3.1 Мбит/сек
Аудио: AC3 | 5.1 | 48 kHz | 448 kbps | 16 bit | Дублированный |
Субтитры: Русские (Полные), английские (Полные)

MedifInfo

Video
ID : 1
Format : AVC
Format/Info : Advanced Video Codec
Format profile : High@L4.1
Format settings, CABAC : Yes
Format settings, ReFrames : 4 frames
Codec ID : V_MPEG4/ISO/AVC
Duration : 2h 38mn
Bit rate : 3 110 Kbps
Width : 1 024 pixels
Height : 424 pixels
Display aspect ratio : 2.40:1
Frame rate : 59.940 fps
Color space : YUV
Chroma subsampling : 4:2:0
Bit depth : 8 bits
Scan type : Progressive
Bits/(Pixel*Frame) : 0.120
Stream size : 3.38 GiB (85%)
Writing library : x264 core 146 r2538 121396c
Encoding settings : cabac=1 / ref=3 / deblock=1:0:0 / analyse=0x3:0x113 / me=umh / subme=11 / psy=1 / psy_rd=1.00:0.10 / mixed_ref=1 / me_range=32 / chroma_me=1 / trellis=2 / 8x8dct=1 / cqm=0 / deadzone=21,11 / fast_pskip=0 / chroma_qp_offset=-3 / threads=12 / lookahead_threads=3 / sliced_threads=0 / nr=0 / decimate=1 / interlaced=0 / bluray_compat=0 / constrained_intra=0 / bframes=16 / b_pyramid=2 / b_adapt=2 / b_bias=0 / direct=3 / weightb=1 / open_gop=0 / weightp=2 / keyint=600 / keyint_min=59 / scenecut=40 / intra_refresh=0 / rc_lookahead=40 / rc=2pass / mbtree=0 / bitrate=3110 / ratetol=1.0 / qcomp=0.60 / qpmin=0 / qpmax=69 / qpstep=4 / cplxblur=20.0 / qblur=0.5 / vbv_maxrate=50000 / vbv_bufsize=62500 / nal_hrd=none / filler=0 / ip_ratio=1.40 / pb_ratio=1.30 / aq=1:1.00
Language : English
Default : Yes
Forced : No
Audio
ID : 2
Format : AC-3
Format/Info : Audio Coding 3
Mode extension : CM (complete main)
Codec ID : A_AC3
Duration : 2h 38mn
Bit rate mode : Constant
Bit rate : 448 Kbps
Channel(s) : 6 channels
Channel positions : Front: L C R, Side: L R, LFE
Sampling rate : 48.0 KHz
Bit depth : 16 bits
Compression mode : Lossy
Stream size : 509 MiB (13%)
Title : Дубляж
Language : Russian
Default : Yes
Forced : No
Text #1
ID : 3
Format : UTF-8
Codec ID : S_TEXT/UTF8
Codec ID/Info : UTF-8 Plain Text
Title : Полные
Language : Russian
Default : No
Forced : No
Text #2
ID : 4
Format : UTF-8
Codec ID : S_TEXT/UTF8
Codec ID/Info : UTF-8 Plain Text
Title : Полные
Language : English
Default : No
Forced : No
Menu
00:00:00.000 : en:Doorstep Delivery
00:04:05.412 : en:Vanishing Glass
00:08:11.449 : en:Letters From No One
00:13:41.821 : en:Keeper of the Keys
00:19:49.188 : en:Diagon Alley
00:23:42.296 : en:Gringotts
00:26:40.307 : en:Ollivanders
00:30:48.138 : en:The Boy Who Lived
00:33:03.857 : en:Platform 9 3/4
00:36:04.204 : en:Ron and Hermione
00:39:48.261 : en:Welcome to Hogwarts
00:43:28.105 : en:Sorting Hat
00:48:12.097 : en:Nick and Other Residents
00:52:27.686 : en:Potions and Parcels
00:58:29.381 : en:New Seeker
01:04:20.607 : en:Three-Headed Sentinel
01:07:08.942 : en:Facts and Feathers
01:11:13.186 : en:Mountain Troll
01:17:30.604 : en:Quidditch
01:23:59.242 : en:Interference Overcome
01:27:35.917 : en:Christmas Gift
01:32:13.820 : en:Cloaked in Darkness
01:35:25.011 : en:Mirror of Erised
01:41:18.155 : en:Norbert
01:49:04.079 : en:Forbidden Forest
01:55:34.177 : en:Up to Something
01:59:50.725 : en:Through the Trapdoor
02:04:38.888 : en:Wizards' Chess
02:10:13.973 : en:Sacrifice Play
02:13:25.289 : en:Man with Two Faces
02:17:24.528 : en:Magic Touch
02:20:47.981 : en:Mark of Love
02:23:58.755 : en:House Cup Winner
02:28:13.843 : en:Not Really Going Home
02:30:41.699 : en:Credits

Гарри Поттер и Тайная комната / Harry Potter and the Chamber of Secrets

«Зло вернулось в Хогвартс»- Информация о фильме
Название: Гарри Поттер и Тайная комната
Оригинальное название: Harry Potter and the Chamber of Secrets
Год выхода: 2002
Жанр: Фэнтези, детектив, приключения, семейный
Режиссер: Крис Коламбус
Сценарий: Стивен Кловз, Дж.К. Роулинг
Продюсер: Дэвид Хейман, Майкл Барнатан, Дэвид Баррон
В ролях: Дэниэл Рэдклифф, Руперт Гринт, Эмма Уотсон, Ричард Гриффитс, Фиона Шоу, Гарри Меллинг, Тоби Джонс, Джим Нортон, Вероника Клиффорд, Джеймс Фелпс, Оливер Фелпс, Джули Уолтерс, Бонни Райт, Марк Уильямс, Крис Ранкин, Том Фелтон, Джейсон Айзекс, Эдвард Тадор-Поул, Дженни Таррен, Робби Колтрейн, Том Найт
--О фильме:
Гарри Поттер переходит на второй курс Школы чародейства и волшебства Хогвартс. Эльф Добби предупреждает Гарри об опасности, которая поджидает его там, и просит больше не возвращаться в школу.
Юный волшебник не следует совету эльфа и становится свидетелем таинственных событий, разворачивающихся в Хогвартсе. Вскоре Гарри и его друзья узнают о существовании Тайной Комнаты и сталкиваются с новыми приключениями, пытаясь победить темные силы.
- - Страна: Великобритания, США, Германия
Продолжительность: 02:54:25
-- Файл
Кодек: MPEG4/ISO/AVC H.264
Формат: MKV
Качество: BDRip-AVC
Видео: 1024x424 (2.40:1) | 59.940 fps | 2.8 Мбит/сек
Аудио: AC3 | 5.1 | 48 kHz | 448 kbps | 16 bit | Дублированный |
Субтитры: Русские (Полные), английские (Полные)

MedifInfo

Video
ID : 1
Format : AVC
Format/Info : Advanced Video Codec
Format profile : High@L4.1
Format settings, CABAC : Yes
Format settings, ReFrames : 4 frames
Codec ID : V_MPEG4/ISO/AVC
Duration : 2h 54mn
Bit rate : 2 800 Kbps
Width : 1 024 pixels
Height : 424 pixels
Display aspect ratio : 2.40:1
Frame rate : 59.940 fps
Color space : YUV
Chroma subsampling : 4:2:0
Bit depth : 8 bits
Scan type : Progressive
Bits/(Pixel*Frame) : 0.108
Stream size : 3.34 GiB (84%)
Writing library : x264 core 146 r2538 121396c
Encoding settings : cabac=1 / ref=3 / deblock=1:0:0 / analyse=0x3:0x113 / me=umh / subme=11 / psy=1 / psy_rd=1.00:0.10 / mixed_ref=1 / me_range=32 / chroma_me=1 / trellis=2 / 8x8dct=1 / cqm=0 / deadzone=21,11 / fast_pskip=0 / chroma_qp_offset=-3 / threads=12 / lookahead_threads=3 / sliced_threads=0 / nr=0 / decimate=1 / interlaced=0 / bluray_compat=0 / constrained_intra=0 / bframes=16 / b_pyramid=2 / b_adapt=2 / b_bias=0 / direct=3 / weightb=1 / open_gop=0 / weightp=2 / keyint=600 / keyint_min=59 / scenecut=40 / intra_refresh=0 / rc_lookahead=40 / rc=2pass / mbtree=0 / bitrate=2800 / ratetol=1.0 / qcomp=0.60 / qpmin=0 / qpmax=69 / qpstep=4 / cplxblur=20.0 / qblur=0.5 / vbv_maxrate=50000 / vbv_bufsize=62500 / nal_hrd=none / filler=0 / ip_ratio=1.40 / pb_ratio=1.30 / aq=1:1.00
Language : English
Default : Yes
Forced : No
Audio
ID : 2
Format : AC-3
Format/Info : Audio Coding 3
Mode extension : CM (complete main)
Codec ID : A_AC3
Duration : 2h 54mn
Bit rate mode : Constant
Bit rate : 448 Kbps
Channel(s) : 6 channels
Channel positions : Front: L C R, Side: L R, LFE
Sampling rate : 48.0 KHz
Bit depth : 16 bits
Compression mode : Lossy
Stream size : 559 MiB (14%)
Title : Дубляж
Language : Russian
Default : Yes
Forced : No
Text #1
ID : 3
Format : UTF-8
Codec ID : S_TEXT/UTF8
Codec ID/Info : UTF-8 Plain Text
Title : Полные
Language : Russian
Default : No
Forced : No
Text #2
ID : 4
Format : UTF-8
Codec ID : S_TEXT/UTF8
Codec ID/Info : UTF-8 Plain Text
Title : Полные
Language : English
Default : No
Forced : No
Menu
00:00:00.000 : en:In a Cage
00:03:00.972 : en:Dobby's Warning
00:08:37.016 : en:Car Rescue
00:11:31.024 : en:The Burrow
00:14:48.554 : en:To Diagon Aley
00:21:20.070 : en:Flourish and Blotts
00:25:38.454 : en:Flying to Hogwarts
00:29:31.520 : en:Whomping Willow
00:32:32.242 : en:Not Expelled...Today
00:35:25.290 : en:Mandrakes; Ron's Howler
00:39:50.805 : en:Gilderoy Lockhart
00:43:52.546 : en:Mudbloods and Murmurs
00:48:40.125 : en:Writing on the Wall
00:54:08.287 : en:About the Chamber
00:58:08.276 : en:Rogue Bludger
01:04:08.595 : en:No Longer Safe
01:09:25.495 : en:Dueling Club
01:14:12.740 : en:A Parselmouth
01:20:33.078 : en:Nothing to Tell
01:25:59.321 : en:Polyjuice Potion
01:31:56.886 : en:Harry and Ron Transformed
01:36:22.485 : en:The Diary
01:41:54.984 : en:Tom Riddle
01:46:02.815 : en:Petrified
01:50:33.377 : en:Cornelius Fudge
01:55:39.557 : en:Aragog
02:00:30.473 : en:Spider Attack
02:04:36.844 : en:Missing
02:08:55.060 : en:Chamber of Secrets
02:14:22.137 : en:Backfire
02:17:38.625 : en:Heir of Slytherin
02:23:01.156 : en:The Basilisk
02:28:01.289 : en:Healing Powers
02:31:34.794 : en:Out of the Hat
02:34:49.071 : en:Dobby's Reward
02:40:04.303 : en:Welcome Back
02:45:11.944 : en:End Credits

Гарри Поттер и узник Азкабана / Harry Potter and the Prisoner of Azkaban

«Всё изменится»- Информация о фильме
Название: Гарри Поттер и узник Азкабана
Оригинальное название: Harry Potter and the Prisoner of Azkaban
Год выхода: 2004
Жанр: Фэнтези, детектив, приключения, семейный
Режиссер: Альфонсо Куарон
Сценарий: Стивен Кловз, Дж.К. Роулинг
Продюсер: Крис Коламбус, Дэвид Хейман, Марк Рэдклифф
В ролях: Дэниэл Рэдклифф, Эмма Уотсон, Руперт Гринт, Алан Рикман, Ричард Гриффитс, Пэм Феррис, Фиона Шоу, Гарри Меллинг, Адриан Роулинз, Джеральдин Соммервиль, Ли Инглби, Ленни Генри, Джимми Гарднер
--О фильме:
В третьей части истории о юном волшебнике полюбившиеся всем герои — Гарри Поттер, Рон и Гермиона — возвращаются уже на третий курс школы чародейства и волшебства Хогвартс. На этот раз они должны раскрыть тайну узника, сбежавшего из зловещей тюрьмы Азкабан, чье пребывание на воле создает для Гарри смертельную опасность…- - Страна: Великобритания, США
Продолжительность: 02:21:42
-- Файл
Кодек: MPEG4/ISO/AVC H.264
Формат: MKV
Качество: BDRip-AVC
Видео: 1024x424 (2.40:1) | 59.940 fps | 3.3 Мбит/сек
Аудио: AC3 | 5.1 | 48 kHz | 640 kbps | 16 bit | Дублированный |
Субтитры: Русские (Полные), английские (Полные)

MedifInfo

Video
ID : 1
Format : AVC
Format/Info : Advanced Video Codec
Format profile : High@L4.1
Format settings, CABAC : Yes
Format settings, ReFrames : 4 frames
Codec ID : V_MPEG4/ISO/AVC
Duration : 2h 21mn
Bit rate : 3 350 Kbps
Width : 1 024 pixels
Height : 424 pixels
Display aspect ratio : 2.40:1
Frame rate mode : Constant
Frame rate : 59.880 fps
Original frame rate : 59.940 fps
Color space : YUV
Chroma subsampling : 4:2:0
Bit depth : 8 bits
Scan type : Progressive
Bits/(Pixel*Frame) : 0.129
Stream size : 3.24 GiB (82%)
Writing library : x264 core 146 r2538 121396c
Encoding settings : cabac=1 / ref=3 / deblock=1:0:0 / analyse=0x3:0x113 / me=umh / subme=11 / psy=1 / psy_rd=1.00:0.10 / mixed_ref=1 / me_range=32 / chroma_me=1 / trellis=2 / 8x8dct=1 / cqm=0 / deadzone=21,11 / fast_pskip=0 / chroma_qp_offset=-3 / threads=12 / lookahead_threads=3 / sliced_threads=0 / nr=0 / decimate=1 / interlaced=0 / bluray_compat=0 / constrained_intra=0 / bframes=16 / b_pyramid=2 / b_adapt=2 / b_bias=0 / direct=3 / weightb=1 / open_gop=0 / weightp=2 / keyint=600 / keyint_min=59 / scenecut=40 / intra_refresh=0 / rc_lookahead=40 / rc=2pass / mbtree=0 / bitrate=3350 / ratetol=1.0 / qcomp=0.60 / qpmin=0 / qpmax=69 / qpstep=4 / cplxblur=20.0 / qblur=0.5 / vbv_maxrate=50000 / vbv_bufsize=62500 / nal_hrd=none / filler=0 / ip_ratio=1.40 / pb_ratio=1.30 / aq=1:1.00
Language : English
Default : Yes
Forced : No
Audio
ID : 2
Format : AC-3
Format/Info : Audio Coding 3
Mode extension : CM (complete main)
Format settings, Endianness : Big
Codec ID : A_AC3
Duration : 2h 21mn
Bit rate mode : Constant
Bit rate : 640 Kbps
Channel(s) : 6 channels
Channel positions : Front: L C R, Side: L R, LFE
Sampling rate : 48.0 KHz
Compression mode : Lossy
Stream size : 649 MiB (16%)
Title : Дубляж
Language : Russian
Default : Yes
Forced : No
Text #1
ID : 3
Format : UTF-8
Codec ID : S_TEXT/UTF8
Codec ID/Info : UTF-8 Plain Text
Title : Полные
Language : Russian
Default : No
Forced : No
Text #2
ID : 4
Format : UTF-8
Codec ID : S_TEXT/UTF8
Codec ID/Info : UTF-8 Plain Text
Title : Полные
Language : English
Default : No
Forced : No
Menu
00:00:00.000 : en:Under Covers Prologue
00:01:40.100 : en:Aunt Marge's Big Mistake
00:06:36.229 : en:The Knight Bus
00:12:45.931 : en:The Leaky Cauldron
00:14:52.516 : en:The Monster Book of Monsters
00:16:12.513 : en:In Grave Danger
00:18:56.218 : en:The Dementor
00:23:50.387 : en:Welcome and Warning
00:28:50.729 : en:Tea Leaves
00:31:21.838 : en:Backbeak
00:38:50.161 : en:Boggart in the Wardrobe
00:44:45.307 : en:Talent for Trouble
00:47:37.813 : en:Flight of the Fat Lady
00:49:39.935 : en:Substitute Teacher
00:53:42.844 : en:Grim Defeat
00:57:28.403 : en:The Marauder's Map
01:01:23.721 : en:Who's There?
01:03:22.924 : en:I Hope He Finds Me
01:07:10.985 : en:The Patronus
01:11:53.475 : en:Seeing the Impossible
01:19:10.078 : en:Professor Trelarney's Prediction
01:22:29.945 : en:Witness to an Execution
01:27:30.870 : en:The Whomping Willow
01:30:13.366 : en:Sirius Black
01:34:19.028 : en:Peter Pettigrew
01:36:56.894 : en:Friends Become Foes
01:42:24.471 : en:The Dementor's Kiss
01:45:40.334 : en:Hermione's Secret
01:50:03.597 : en:Onlookers to the Rescue
01:55:33.343 : en:Saving Lives
02:00:07.408 : en:Truly Seen, Truly Free
02:03:16.055 : en:Two Places at Once
02:06:02.513 : en:Mischief Managed
02:08:42.923 : en:The Firebolt
02:09:47.404 : en:End Credits Map

Гарри Поттер и Кубок огня / Harry Potter and the Goblet of Fire

«Впереди темные и страшные времена»- Информация о фильме
Название: Гарри Поттер и Кубок огня
Оригинальное название: Harry Potter and the Goblet of Fire
Год выхода: 2005
Жанр: Фэнтези, детектив, приключения, семейный
Режиссер: Майк Ньюэлл
Сценарий: Стивен Кловз, Дж.К. Роулинг
Продюсер: Дэвид Хейман, Дэвид Баррон, Крис Каррерас
В ролях: Дэниэл Рэдклифф, Эмма Уотсон, Руперт Гринт, Алан Рикман, Эрик Сайкес, Тимоти Сполл, Дэвид Теннант, Марк Уильямс, Джеймс Фелпс, Оливер Фелпс
--О фильме:
Гарри Поттер, Рон и Гермиона возвращаются на четвертый курс школы чародейства и волшебства Хогвартс. При таинственных обстоятельствах Гарри отобран в число участников опасного соревнования — Турнира Трех Волшебников, однако проблема в том, что все его соперники — намного старше и сильнее.
К тому же, знаки указывают на возвращение Лорда Волдеморта. Вскоре Гарри предстоит побороться не только за победу в соревновании, но и, прежде всего, за свою жизнь…
- - Страна: Великобритания, США
Продолжительность: 02:37:05
-- Файл
Кодек: MPEG4/ISO/AVC H.264
Формат: MKV
Качество: BDRip-AVC
Видео: 1024x424 (2.40:1) | 59.940 fps | 3.1 Мбит/сек
Аудио: AC3 | 5.1 | 48 kHz | 448 kbps | 16 bit | Дублированный |
Субтитры: Русские (Полные), английские (Полные)

MedifInfo

Video
ID : 1
Format : AVC
Format/Info : Advanced Video Codec
Format profile : High@L4.1
Format settings, CABAC : Yes
Format settings, ReFrames : 4 frames
Codec ID : V_MPEG4/ISO/AVC
Duration : 2h 37mn
Bit rate : 3 150 Kbps
Width : 1 024 pixels
Height : 424 pixels
Display aspect ratio : 2.40:1
Frame rate mode : Constant
Frame rate : 59.880 fps
Original frame rate : 59.940 fps
Color space : YUV
Chroma subsampling : 4:2:0
Bit depth : 8 bits
Scan type : Progressive
Bits/(Pixel*Frame) : 0.121
Stream size : 3.38 GiB (86%)
Writing library : x264 core 146 r2538 121396c
Encoding settings : cabac=1 / ref=3 / deblock=1:0:0 / analyse=0x3:0x113 / me=umh / subme=11 / psy=1 / psy_rd=1.00:0.10 / mixed_ref=1 / me_range=32 / chroma_me=1 / trellis=2 / 8x8dct=1 / cqm=0 / deadzone=21,11 / fast_pskip=0 / chroma_qp_offset=-3 / threads=12 / lookahead_threads=3 / sliced_threads=0 / nr=0 / decimate=1 / interlaced=0 / bluray_compat=0 / constrained_intra=0 / bframes=16 / b_pyramid=2 / b_adapt=2 / b_bias=0 / direct=3 / weightb=1 / open_gop=0 / weightp=2 / keyint=600 / keyint_min=59 / scenecut=40 / intra_refresh=0 / rc_lookahead=40 / rc=2pass / mbtree=0 / bitrate=3150 / ratetol=1.0 / qcomp=0.60 / qpmin=0 / qpmax=69 / qpstep=4 / cplxblur=20.0 / qblur=0.5 / vbv_maxrate=50000 / vbv_bufsize=62500 / nal_hrd=none / filler=0 / ip_ratio=1.40 / pb_ratio=1.30 / aq=1:1.00
Language : English
Default : Yes
Forced : No
Audio
ID : 2
Format : AC-3
Format/Info : Audio Coding 3
Mode extension : CM (complete main)
Format settings, Endianness : Big
Codec ID : A_AC3
Duration : 2h 37mn
Bit rate mode : Constant
Bit rate : 448 Kbps
Channel(s) : 6 channels
Channel positions : Front: L C R, Side: L R, LFE
Sampling rate : 48.0 KHz
Compression mode : Lossy
Stream size : 503 MiB (12%)
Title : Дубляж
Language : Russian
Default : Yes
Forced : No
Text #1
ID : 3
Format : UTF-8
Codec ID : S_TEXT/UTF8
Codec ID/Info : UTF-8 Plain Text
Title : Полные
Language : Russian
Default : No
Forced : No
Text #2
ID : 4
Format : UTF-8
Codec ID : S_TEXT/UTF8
Codec ID/Info : UTF-8 Plain Text
Title : Полные
Language : English
Default : No
Forced : No
Menu
00:00:00.000 : en:The Riddle House
00:03:46.559 : en:The Portkey
00:06:09.369 : en:The Quidditch World Cup
00:09:50.089 : en:The Dark Mark
00:13:45.324 : en:The Triwizard Tournament
00:19:14.987 : en:The Goblet of Fire
00:23:09.388 : en:The Unforgivable Curses
00:29:01.573 : en:The Four Champions
00:36:26.684 : en:Let Events Unfold
00:39:05.009 : en:Rita Skeeter
00:41:32.489 : en:Sirius Conversation
00:45:36.400 : en:The Hungarian Horntail
00:49:07.778 : en:Transforming Malfoy
00:54:06.243 : en:The First Task
01:02:46.596 : en:Best Foot Foward
01:09:12.982 : en:An Unexpected Challenge
01:14:43.979 : en:The Yule Ball
01:22:27.609 : en:The Egg's Glue
01:30:34.762 : en:The Second Task
01:39:29.296 : en:Never Whole Again
01:42:42.489 : en:The Pensieve
01:47:22.936 : en:Dreams and Suspicions
01:50:19.279 : en:The Thrid Task
01:58:54.460 : en:Flesh, Blood, and Bone
02:02:02.315 : en:The Death Eaters
02:06:36.589 : en:Priori Incantatem
02:10:01.627 : en:Veritaserum
02:17:38.083 : en:Parting Ways
02:23:48.620 : en:End Credits
02:37:03.914 : en:End

Гарри Поттер и Орден Феникса / Harry Potter and the Order of the Phoenix

«Выжить суждено только одному»- Информация о фильме
Название: Гарри Поттер и Орден Феникса
Оригинальное название: Harry Potter and the Order of the Phoenix
Год выхода: 2007
Жанр: Фэнтези, детектив, приключения, семейный
Режиссер: Дэвид Йэтс
Сценарий: Майкл Голденберг, Дж.К. Роулинг
Продюсер: Дэвид Баррон, Дэвид Хейман, Тим Льюис
В ролях: Дэниэл Рэдклифф, Эмма Уотсон, Руперт Гринт, Алан Рикман, Джейсон Бойд, Ричард Маклин, Гарри Меллинг, Кэтрин Хантер, Майлз Джапп, Фиона Шоу, Ричард Гриффитс
--О фильме:
Гарри проводит свой пятый год обучения в школе Хогвартс и обнаруживает, что многие из членов волшебного сообщества отрицают сам факт недавнего состязания юного волшебника с воплощением вселенского зла Волдемортом, делая вид, что не имеют ни малейшего представления о том, что злодей вернулся.
Опасаясь, что почтенный глава Хогвартса Альбус Дамблдор распространяет лживые слухи о возвращении Волдеморта, стремясь подорвать авторитет Министра Магии Корнелиуса Фаджа и в дальнейшем занять его место, Корнелиус назначает нового профессора защиты от темных искусств, который должен будет пристально следить за Дамблдором и студентами Хогвартса.
Но одобренный министерством курс лекций по защитной магии профессора Долорес Амбридж оказывается на практике абсолютно бесполезным — юные волшебники просто неспособны противостоять действию темных сил, угрожающих им и всему волшебному сообществу. И тогда, по настоянию своих друзей, Гермионы и Рона, Гарри берет инициативу в свои руки.
Тайно встречаясь с небольшой группой студентов, называющей себя Отрядом Дамблдора, Гарри обучает их самозащите от темных сил, готовя отважных волшебников к необычной схватке, которая ждет их впереди.
- - Страна: Великобритания, США
Продолжительность: 02:18:14
-- Файл
Кодек: MPEG4/ISO/AVC H.264
Формат: MKV
Качество: BDRip-AVC
Видео: 1024x424 (2.40:1) | 59.940 fps | 3.4 Мбит/сек
Аудио: AC3 | 5.1 | 48 kHz | 640 kbps | 16 bit | Дублированный |
Субтитры: Русские (Полные), английские (Полные)

MedifInfo

Video
ID : 1
Format : AVC
Format/Info : Advanced Video Codec
Format profile : High@L4.1
Format settings, CABAC : Yes
Format settings, ReFrames : 4 frames
Codec ID : V_MPEG4/ISO/AVC
Duration : 2h 18mn
Bit rate : 3 450 Kbps
Width : 1 024 pixels
Height : 424 pixels
Display aspect ratio : 2.40:1
Frame rate : 59.940 fps
Color space : YUV
Chroma subsampling : 4:2:0
Bit depth : 8 bits
Scan type : Progressive
Bits/(Pixel*Frame) : 0.133
Stream size : 3.25 GiB (82%)
Title : Tiberiumsun69
Writing library : x264 core 146 r2538 121396c
Encoding settings : cabac=1 / ref=3 / deblock=1:0:0 / analyse=0x3:0x113 / me=umh / subme=11 / psy=1 / psy_rd=1.00:0.10 / mixed_ref=1 / me_range=32 / chroma_me=1 / trellis=2 / 8x8dct=1 / cqm=0 / deadzone=21,11 / fast_pskip=0 / chroma_qp_offset=-3 / threads=12 / lookahead_threads=3 / sliced_threads=0 / nr=0 / decimate=1 / interlaced=0 / bluray_compat=0 / constrained_intra=0 / bframes=16 / b_pyramid=2 / b_adapt=2 / b_bias=0 / direct=3 / weightb=1 / open_gop=0 / weightp=2 / keyint=600 / keyint_min=59 / scenecut=40 / intra_refresh=0 / rc_lookahead=40 / rc=2pass / mbtree=0 / bitrate=3450 / ratetol=1.0 / qcomp=0.60 / qpmin=0 / qpmax=69 / qpstep=4 / cplxblur=20.0 / qblur=0.5 / vbv_maxrate=50000 / vbv_bufsize=62500 / nal_hrd=none / filler=0 / ip_ratio=1.40 / pb_ratio=1.30 / aq=1:1.00
Language : English
Default : Yes
Forced : No
Audio
ID : 2
Format : AC-3
Format/Info : Audio Coding 3
Mode extension : CM (complete main)
Codec ID : A_AC3
Duration : 2h 18mn
Bit rate mode : Constant
Bit rate : 640 Kbps
Channel(s) : 6 channels
Channel positions : Front: L C R, Side: L R, LFE
Sampling rate : 48.0 KHz
Bit depth : 16 bits
Compression mode : Lossy
Stream size : 633 MiB (16%)
Title : Дубляж
Language : Russian
Default : Yes
Forced : No
Text #1
ID : 3
Format : UTF-8
Codec ID : S_TEXT/UTF8
Codec ID/Info : UTF-8 Plain Text
Title : Полные
Language : Russian
Default : No
Forced : No
Text #2
ID : 4
Format : UTF-8
Codec ID : S_TEXT/UTF8
Codec ID/Info : UTF-8 Plain Text
Title : Полные
Language : English
Default : No
Forced : No
Menu
00:00:00.000 : en:Dudley Demented
00:04:50.957 : en:The Advance Guard
00:10:16.782 : en:Number 12, Grimmauld Place
00:15:19.919 : en:The Order of the Phoenix
00:17:43.228 : en:The Ministry of Magic
00:20:52.417 : en:The Hearing
00:25:33.532 : en:The Originals
00:28:07.352 : en:Luna Lovegood
00:30:20.985 : en:Preserve, Perfect and Prune
00:34:53.925 : en:Professor Umbridge's Class
00:37:41.092 : en:Detention with Dolores
00:41:48.506 : en:Thestrals and Sympathy
00:44:57.528 : en:The Hogwarts High Inquisitor
00:50:57.387 : en:In the Hog's Head
00:56:37.394 : en:Dumbledore's Army
01:03:28.638 : en:Under the Mistletoe
01:07:39.055 : en:Occlumency
01:11:16.105 : en:House of Black
01:16:30.252 : en:Hagrid's Tale
01:19:16.585 : en:Unquiet Escape
01:25:30.959 : en:Grawp
01:31:30.651 : en:Snape's Worst Memory
01:34:49.850 : en:O.W.L.S.
01:37:42.356 : en:Out of the Fire
01:41:40.260 : en:Fight and Flight
01:45:59.353 : en:The Department of Mysteries
01:48:37.177 : en:Beyond the Veil
01:52:40.920 : en:Side By Side
01:57:30.710 : en:Wizards Duel
02:03:33.239 : en:The Lost Prophecy
02:05:50.709 : en:A Way of Coming Back
02:08:26.865 : en:End Credits

Гарри Поттер и Принц-полукровка / Harry Potter and the Half-Blood Prince

«Секрет темных сил раскрыт»- Информация о фильме
Название: Гарри Поттер и Принц-полукровка
Оригинальное название: Harry Potter and the Half-Blood Prince
Год выхода: 2009
Жанр: Фэнтези, детектив, приключения, семейный
Режиссер: Дэвид Йэтс
Сценарий: Стивен Кловз, Дж.К. Роулинг
Продюсер: Дэвид Баррон, Дэвид Хейман, Тим Льюис
В ролях: Дэниэл Рэдклифф, Руперт Гринт, Эмма Уотсон, Хелена Бонем Картер, Дэвид Тьюлис, Джим Броудбент, Эларика Галлахер, Робби Колтрейн, Майкл Гэмбон, Мэгги Смит, Алан Рикман, Бонни Райт
--О фильме:
Теперь не только мир волшебников, но и мир маглов ощущает на себе все возрастающую силу Волан-де-Морта, а Хогвартс уже никак не назовешь надежным убежищем, каким он был раньше. Гарри подозревает, что в самом замке затаилась некая опасность, но Дамблдор больше сосредоточен на том, чтобы подготовить его к финальной схватке, которая, как он знает, уже не за горами. Вместе они пытаются разгадать секрет бессмертия Волан-де-Морта, а для этого Дамблдор приглашает на должность преподавателя по зельеварению своего старинного друга и коллегу — профессора Горация Слизнорта, который обожает устраивать вечеринки для избранных и гордится своими обширными связями в высших кругах. Но этот бонвиван и не подозревает, что как раз от него Дамблдор надеется заполучить самую важную информацию о крестражах.
Тем временем учеников атакуют самые разные враги, а подростковые эмоции хлещут через край. Гарри начинает понимать, что становится все более неравнодушным к Джинни, однако, и Дин Томас тоже. А Лаванда Браун вбила себе в голову, что Рон — тот самый единственный, которого она ждет, да вот только не учла волшебного эффекта шоколадных конфет Ромильды Вейн! Ну и, наконец, Гермиона пылает жгучей ревностью, но старается не показывать своих чувств. Пока романтические отношения расцветают, лишь один ученик остается в стороне. Он твердо намерен оставить свою метку, темную метку. Любовь витает в воздухе, но впереди ждет беда, и Хогвартс, возможно, уже никогда не будет прежним.
- - Страна: Великобритания, США
Продолжительность: 02:33:31
-- Файл
Кодек: MPEG4/ISO/AVC H.264
Формат: MKV
Качество: BDRip-AVC
Видео: 1024x424 (2.40:1) | 59.940 fps | 3.2 Мбит/сек
Аудио: AC3 | 5.1 | 48 kHz | 448 kbps | 16 bit | Дублированный |
Субтитры: Русские (Полные), английские (Полные)

MedifInfo

Video
ID : 1
Format : AVC
Format/Info : Advanced Video Codec
Format profile : High@L4.1
Format settings, CABAC : Yes
Format settings, ReFrames : 4 frames
Codec ID : V_MPEG4/ISO/AVC
Duration : 2h 33mn
Bit rate : 3 230 Kbps
Width : 1 024 pixels
Height : 424 pixels
Display aspect ratio : 2.40:1
Frame rate : 59.940 fps
Color space : YUV
Chroma subsampling : 4:2:0
Bit depth : 8 bits
Scan type : Progressive
Bits/(Pixel*Frame) : 0.124
Stream size : 3.39 GiB (86%)
Writing library : x264 core 146 r2538 121396c
Encoding settings : cabac=1 / ref=3 / deblock=1:0:0 / analyse=0x3:0x113 / me=umh / subme=11 / psy=1 / psy_rd=1.00:0.10 / mixed_ref=1 / me_range=32 / chroma_me=1 / trellis=2 / 8x8dct=1 / cqm=0 / deadzone=21,11 / fast_pskip=0 / chroma_qp_offset=-3 / threads=12 / lookahead_threads=3 / sliced_threads=0 / nr=0 / decimate=1 / interlaced=0 / bluray_compat=0 / constrained_intra=0 / bframes=16 / b_pyramid=2 / b_adapt=2 / b_bias=0 / direct=3 / weightb=1 / open_gop=0 / weightp=2 / keyint=600 / keyint_min=59 / scenecut=40 / intra_refresh=0 / rc_lookahead=40 / rc=2pass / mbtree=0 / bitrate=3230 / ratetol=1.0 / qcomp=0.60 / qpmin=0 / qpmax=69 / qpstep=4 / cplxblur=20.0 / qblur=0.5 / vbv_maxrate=50000 / vbv_bufsize=62500 / nal_hrd=none / filler=0 / ip_ratio=1.40 / pb_ratio=1.30 / aq=1:1.00
Language : English
Default : Yes
Forced : No
Audio
ID : 2
Format : AC-3
Format/Info : Audio Coding 3
Mode extension : CM (complete main)
Codec ID : A_AC3
Duration : 2h 33mn
Bit rate mode : Constant
Bit rate : 448 Kbps
Channel(s) : 6 channels
Channel positions : Front: L C R, Side: L R, LFE
Sampling rate : 48.0 KHz
Bit depth : 16 bits
Compression mode : Lossy
Stream size : 492 MiB (12%)
Title : Дубляж
Language : Russian
Default : Yes
Forced : No
Text #1
ID : 3
Format : UTF-8
Codec ID : S_TEXT/UTF8
Codec ID/Info : UTF-8 Plain Text
Title : Полные
Language : Russian
Default : No
Forced : No
Text #2
ID : 4
Format : UTF-8
Codec ID : S_TEXT/UTF8
Codec ID/Info : UTF-8 Plain Text
Title : Полные
Language : English
Default : No
Forced : No
Menu
00:00:00.000 : en:Who's Harry Potter?
00:05:28.494 : en:Horace Slughorn
00:12:13.941 : en:What Could Be Safer?
00:14:57.146 : en:Snape's Visitors
00:18:43.205 : en:Draco's Detour
00:22:30.515 : en:That's For My Father
00:27:36.029 : en:Dark Forces
00:32:04.631 : en:The Half Blood Prince
00:37:48.224 : en:The Secret Riddle
00:44:48.352 : en:Hermione's Helping Hand
00:49:31.760 : en:Cursed Necklace
00:54:55.375 : en:Slug Club
01:00:00.305 : en:Felix Felicis
01:03:09.660 : en:How It Feels
01:05:57.161 : en:Free Agents
01:09:13.691 : en:The Unbreakable Vow
01:14:00.102 : en:Death Eaters Attack
01:21:09.781 : en:A Sluggish Memory
01:26:31.477 : en:Perilous Potions
01:33:37.403 : en:Sectumsempra
01:39:57.324 : en:Hiding the Book
01:43:16.273 : en:Liquid Luck
01:48:24.748 : en:After Aragog's Burial
01:52:30.118 : en:Horcruxes
01:56:53.673 : en:The Cave
02:02:11.741 : en:Inferi Attack
02:08:33.539 : en:The Astronomy Tower
02:15:00.300 : en:Flight of the Prince
02:19:08.048 : en:R.a.B.
02:23:54.125 : en:End Credits

Гарри Поттер и Дары Смерти: Часть I / Harry Potter and the Deathly Hallows: Part 1

«Опасность повсюду»- Информация о фильме
Название: Гарри Поттер и Дары Смерти: Часть I
Оригинальное название: Harry Potter and the Deathly Hallows: Part 1
Год выхода: 2010
Жанр: Фэнтези, детектив, приключения, семейный
Режиссер: Дэвид Йэтс
Сценарий: Стивен Кловз, Дж.К. Роулинг
Продюсер: Дэвид Баррон, Дэвид Хейман, Дж.К. Роулинг
В ролях: Дэниел Рэдклифф, Эмма Уотсон, Том Фелтон, Руперт Гринт, Бонни Райт, Алан Рикман, Рэйф Файнс, Хелена Бонем Картер, Майкл Гэмбон, Брендан Глисон, Джеральдин Сомервилль, Робби Колтрейн, Девон Мюррэй, Ник Моран, Джейсон Айзекс
--О фильме:
Гарри Поттера ждёт самое страшное испытание в жизни — смертельная схватка с Волан-де-Мортом. Ждать помощи не от кого — Гарри одинок, как никогда… Друзья и враги Гарри предстают в совершенно неожиданном свете. Граница между Добром и Злом становится всё призрачнее…- - Страна: Великобритания, США
Продолжительность: 02:26:05
-- Файл
Кодек: MPEG4/ISO/AVC H.264
Формат: MKV
Качество: BDRip-AVC
Видео: 1024x424 (2.40:1) | 59.940 fps | 3.2 Мбит/сек
Аудио: AC3 | 5.1 | 48 kHz | 640 kbps | 16 bit | Дублированный |
Субтитры: Русские (Полные), английские (Полные)

MedifInfo

Video
ID : 1
Format : AVC
Format/Info : Advanced Video Codec
Format profile : High@L4.1
Format settings, CABAC : Yes
Format settings, ReFrames : 4 frames
Codec ID : V_MPEG4/ISO/AVC
Duration : 2h 26mn
Bit rate : 3 230 Kbps
Width : 1 024 pixels
Height : 424 pixels
Display aspect ratio : 2.40:1
Frame rate : 59.940 fps
Color space : YUV
Chroma subsampling : 4:2:0
Bit depth : 8 bits
Scan type : Progressive
Bits/(Pixel*Frame) : 0.124
Stream size : 3.22 GiB (81%)
Writing library : x264 core 146 r2538 121396c
Encoding settings : cabac=1 / ref=3 / deblock=1:0:0 / analyse=0x3:0x113 / me=umh / subme=11 / psy=1 / psy_rd=1.00:0.10 / mixed_ref=1 / me_range=32 / chroma_me=1 / trellis=2 / 8x8dct=1 / cqm=0 / deadzone=21,11 / fast_pskip=0 / chroma_qp_offset=-3 / threads=12 / lookahead_threads=3 / sliced_threads=0 / nr=0 / decimate=1 / interlaced=0 / bluray_compat=0 / constrained_intra=0 / bframes=16 / b_pyramid=2 / b_adapt=2 / b_bias=0 / direct=3 / weightb=1 / open_gop=0 / weightp=2 / keyint=600 / keyint_min=59 / scenecut=40 / intra_refresh=0 / rc_lookahead=40 / rc=2pass / mbtree=0 / bitrate=3230 / ratetol=1.0 / qcomp=0.60 / qpmin=0 / qpmax=69 / qpstep=4 / cplxblur=20.0 / qblur=0.5 / vbv_maxrate=50000 / vbv_bufsize=62500 / nal_hrd=none / filler=0 / ip_ratio=1.40 / pb_ratio=1.30 / aq=1:1.00
Language : English
Default : Yes
Forced : No
Audio
ID : 2
Format : AC-3
Format/Info : Audio Coding 3
Mode extension : CM (complete main)
Codec ID : A_AC3
Duration : 2h 26mn
Bit rate mode : Constant
Bit rate : 640 Kbps
Channel(s) : 6 channels
Channel positions : Front: L C R, Side: L R, LFE
Sampling rate : 48.0 KHz
Bit depth : 16 bits
Compression mode : Lossy
Stream size : 669 MiB (17%)
Title : Дубляж
Language : Russian
Default : Yes
Forced : No
Text #1
ID : 3
Format : UTF-8
Codec ID : S_TEXT/UTF8
Codec ID/Info : UTF-8 Plain Text
Title : Полные
Language : Russian
Default : No
Forced : No
Text #2
ID : 4
Format : UTF-8
Codec ID : S_TEXT/UTF8
Codec ID/Info : UTF-8 Plain Text
Title : Полные
Language : English
Default : No
Forced : No
Menu
00:00:00.000 : en:00:00:00.000
00:04:18.508 : en:00:04:18.508
00:09:46.627 : en:00:09:46.627
00:15:16.206 : en:00:15:16.206
00:19:13.569 : en:00:19:13.569
00:26:04.229 : en:00:26:04.229
00:31:37.770 : en:00:31:37.770
00:35:43.307 : en:00:35:43.307
00:41:37.536 : en:00:41:37.536
00:45:45.617 : en:00:45:45.617
00:50:14.094 : en:00:50:14.094
00:55:02.715 : en:00:55:02.715
00:58:31.174 : en:00:58:31.174
01:03:41.358 : en:01:03:41.358
01:10:02.197 : en:01:10:02.197
01:14:30.924 : en:01:14:30.924
01:18:48.848 : en:01:18:48.848
01:22:17.598 : en:01:22:17.598
01:24:55.089 : en:01:24:55.089
01:28:03.194 : en:01:28:03.194
01:32:34.173 : en:01:32:34.173
01:37:40.228 : en:01:37:40.228
01:42:37.567 : en:01:42:37.567
01:47:54.133 : en:01:47:54.133
01:53:48.112 : en:01:53:48.112
01:57:30.960 : en:01:57:30.960
02:01:27.988 : en:02:01:27.988
02:05:42.159 : en:02:05:42.159
02:09:42.732 : en:02:09:42.732
02:13:16.029 : en:02:13:16.029
02:14:47.120 : en:02:14:47.120

Гарри Поттер и Дары Смерти: Часть II / Harry Potter and the Deathly Hallows: Part 2

«Все закончится»- Информация о фильме
Название: Гарри Поттер и Дары Смерти: Часть II
Оригинальное название: Harry Potter and the Deathly Hallows: Part 2
Год выхода: 2011
Жанр: Фэнтези, детектив, приключения, семейный
Режиссер: Дэвид Йэтс
Сценарий: Стивен Кловз, Дж.К. Роулинг
Продюсер: Дэвид Баррон, Дэвид Хейман, Дж.К. Роулинг
В ролях: Дэниэл Рэдклифф, Руперт Гринт, Эмма Уотсон, Рэйф Файнс, Алан Рикман, Хелена Бонем Картер, Том Фелтон, Гари Олдман, Майкл Гэмбон, Мэгги Смит
--О фильме:
В грандиозной последней главе битва между добрыми и злыми силами мира волшебников перерастает во всеобщую войну. Ставки ещё никогда не были так высоки, а поиск убежища — столь сложен. И быть может именно Гарри Поттеру придется пожертвовать всем в финальном сражении с Волан-де-Мортом. Способен ли наш герой спасти мир? И всё закончится здесь.- - Страна: Великобритания, США
Продолжительность: 02:10:26
-- Файл
Кодек: MPEG4/ISO/AVC H.264
Формат: MKV
Качество: BDRip-AVC
Видео: 1024x424 (2.40:1) | 59.940 fps | 3.7 Мбит/сек
Аудио: AC3 | 5.1 | 48 kHz | 640 kbps | 16 bit | Дублированный |
Субтитры: Русские (Полные), английские (Полные)

MedifInfo

Video
ID : 1
Format : AVC
Format/Info : Advanced Video Codec
Format profile : High@L4.1
Format settings, CABAC : Yes
Format settings, ReFrames : 4 frames
Codec ID : V_MPEG4/ISO/AVC
Duration : 2h 10mn
Bit rate : 3 700 Kbps
Width : 1 024 pixels
Height : 424 pixels
Display aspect ratio : 2.40:1
Frame rate : 59.940 fps
Color space : YUV
Chroma subsampling : 4:2:0
Bit depth : 8 bits
Scan type : Progressive
Bits/(Pixel*Frame) : 0.142
Stream size : 3.30 GiB (83%)
Writing library : x264 core 146 r2538 121396c
Encoding settings : cabac=1 / ref=3 / deblock=1:0:0 / analyse=0x3:0x113 / me=umh / subme=11 / psy=1 / psy_rd=1.00:0.10 / mixed_ref=1 / me_range=32 / chroma_me=1 / trellis=2 / 8x8dct=1 / cqm=0 / deadzone=21,11 / fast_pskip=0 / chroma_qp_offset=-3 / threads=12 / lookahead_threads=3 / sliced_threads=0 / nr=0 / decimate=1 / interlaced=0 / bluray_compat=0 / constrained_intra=0 / bframes=16 / b_pyramid=2 / b_adapt=2 / b_bias=0 / direct=3 / weightb=1 / open_gop=0 / weightp=2 / keyint=600 / keyint_min=59 / scenecut=40 / intra_refresh=0 / rc_lookahead=40 / rc=2pass / mbtree=0 / bitrate=3700 / ratetol=1.0 / qcomp=0.60 / qpmin=0 / qpmax=69 / qpstep=4 / cplxblur=20.0 / qblur=0.5 / vbv_maxrate=50000 / vbv_bufsize=62500 / nal_hrd=none / filler=0 / ip_ratio=1.40 / pb_ratio=1.30 / aq=1:1.00
Language : English
Default : Yes
Forced : No
Audio
ID : 2
Format : AC-3
Format/Info : Audio Coding 3
Mode extension : CM (complete main)
Codec ID : A_AC3
Duration : 2h 10mn
Bit rate mode : Constant
Bit rate : 640 Kbps
Channel(s) : 6 channels
Channel positions : Front: L C R, Side: L R, LFE
Sampling rate : 48.0 KHz
Bit depth : 16 bits
Compression mode : Lossy
Stream size : 597 MiB (15%)
Title : Дубляж
Language : Russian
Default : Yes
Forced : No
Text #1
ID : 3
Format : UTF-8
Codec ID : S_TEXT/UTF8
Codec ID/Info : UTF-8 Plain Text
Title : Полные
Language : Russian
Default : No
Forced : No
Text #2
ID : 4
Format : UTF-8
Codec ID : S_TEXT/UTF8
Codec ID/Info : UTF-8 Plain Text
Title : Полные
Language : English
Default : No
Forced : No
Menu
00:00:00.000 : :00:00:00.000
00:02:58.219 : :00:02:58.219
00:06:21.172 : :00:06:21.172
00:10:21.871 : :00:10:21.871
00:14:27.992 : :00:14:27.992
00:20:05.621 : :00:20:05.621
00:22:47.783 : :00:22:47.783
00:25:38.620 : :00:25:38.620
00:30:46.803 : :00:30:46.803
00:34:33.654 : :00:34:33.654
00:40:32.263 : :00:40:32.263
00:45:52.249 : :00:45:52.249
00:50:15.470 : :00:50:15.470
00:54:41.027 : :00:54:41.027
00:59:01.245 : :00:59:01.245
01:03:42.067 : :01:03:42.067
01:07:06.063 : :01:07:06.063
01:11:24.488 : :01:11:24.488
01:14:38.932 : :01:14:38.932
01:23:40.848 : :01:23:40.848
01:29:17.727 : :01:29:17.727
01:31:25.020 : :01:31:25.020
01:36:37.666 : :01:36:37.666
01:41:09.104 : :01:41:09.104
01:46:42.312 : :01:46:42.312
01:50:18.361 : :01:50:18.361
01:54:16.682 : :01:54:16.682
01:58:12.876 : :01:58:12.876
02:10:26.609 : :02:10:26.609


Последний раз редактировалось: Kryl (2015-09-30 11:34), всего редактировалось 1 раз
 
Показать сообщения:    

Текущее время: 08-Дек 19:01

Часовой пояс: UTC + 3


Вы не можете начинать темы
Вы не можете отвечать на сообщения
Вы не можете редактировать свои сообщения
Вы не можете удалять свои сообщения
Вы не можете голосовать в опросах
Вы не можете прикреплять файлы к сообщениям
Вы не можете скачивать файлы