«Путешествие в твою мечту»- Информация
Название: Гарри Поттер и философский камень
Оригинальное название: Harry Potter and the Sorcerer's Stone
Год выхода: 2001
Жанр: Фэнтези, приключения, семейный
Режиссер: Крис Коламбус
Сценарий: Стивен Кловз, Дж.К. Роулинг
Продюсер: Дэвид Хейман, Тодд Арноу, Майкл Барнатан
В ролях: Дэниэл Рэдклифф, Руперт Гринт, Эмма Уотсон, Ричард Харрис, Алан Рикман, Мэгги Смит, Робби Колтрейн, Том Фелтон, Мэттью Льюис, Иэн Харт
--Сюжет:
Жизнь десятилетнего Гарри Поттера нельзя назвать сладкой: его родители умерли, едва ему исполнился год, а от дяди и тётки, взявших сироту на воспитание, достаются лишь тычки да подзатыльники. Но в одиннадцатый день рождения Гарри всё меняется. Странный гость, неожиданно появившийся на пороге, приносит письмо, из которого мальчик узнаёт, что на самом деле он волшебник и принят в Хогвартс — школу магии. А уже через пару недель Гарри будет мчаться в поезде Хогвартс-экспресс навстречу новой жизни, где его ждут невероятные приключения, верные друзья и самое главное — ключ к разгадке тайны смерти его родителей.- - Страна: Великобритания, США
Продолжительность: 02:32:21
-- Файл
Кодек: MPEG4/ISO/AVC H.264
Формат: MKV
Качество: BDRip 720p (исходник Blu-ray Disc)
Видео: 1280x534 | 59.940 fps | 6.3 Мбит/сек
Аудио 1: AC3 | 5.1 | 48 kHz | 640 kbps | 16 bit | Дублированный [iTunes] |
Аудио 2: AC3 | 5.1 | 48 kHz | 448 kbps | 16 bit | ENG |
Субтитры: Русские | Полные, Английские | Полные

MedifInfo

Video
ID : 1
Format : AVC
Format/Info : Advanced Video Codec
Format profile : High@L4.1
Format settings, CABAC : Yes
Format settings, ReFrames : 9 frames
Codec ID : V_MPEG4/ISO/AVC
Duration : 2h 32mn
Bit rate : 6 323 Kbps
Width : 1 280 pixels
Height : 534 pixels
Display aspect ratio : 2.40:1
Frame rate mode : Constant
Frame rate : 59.880 fps
Original frame rate : 59.940 fps
Color space : YUV
Chroma subsampling : 4:2:0
Bit depth : 8 bits
Scan type : Progressive
Bits/(Pixel*Frame) : 0.154
Stream size : 6.73 GiB (84%)
Writing library : x264 core 146 r2538 121396c
Encoding settings : cabac=1 / ref=9 / deblock=1:0:0 / analyse=0x3:0x113 / me=umh / subme=10 / psy=1 / psy_rd=1.00:0.00 / mixed_ref=1 / me_range=24 / chroma_me=1 / trellis=2 / 8x8dct=1 / cqm=0 / deadzone=21,11 / fast_pskip=0 / chroma_qp_offset=-2 / threads=12 / lookahead_threads=1 / sliced_threads=0 / nr=0 / decimate=1 / interlaced=0 / bluray_compat=0 / constrained_intra=0 / bframes=5 / b_pyramid=2 / b_adapt=2 / b_bias=0 / direct=3 / weightb=1 / open_gop=0 / weightp=2 / keyint=250 / keyint_min=25 / scenecut=40 / intra_refresh=0 / rc_lookahead=40 / rc=crf / mbtree=0 / crf=18.0 / qcomp=0.60 / qpmin=0 / qpmax=69 / qpstep=4 / vbv_maxrate=14000 / vbv_bufsize=14000 / crf_max=0.0 / nal_hrd=none / filler=0 / ip_ratio=1.40 / pb_ratio=1.30 / aq=3:1.00
Language : English
Default : Yes
Forced : No
Audio #1
ID : 2
Format : AC-3
Format/Info : Audio Coding 3
Mode extension : CM (complete main)
Format settings, Endianness : Big
Codec ID : A_AC3
Duration : 2h 32mn
Bit rate mode : Constant
Bit rate : 640 Kbps
Channel(s) : 6 channels
Channel positions : Front: L C R, Side: L R, LFE
Sampling rate : 48.0 KHz
Compression mode : Lossy
Stream size : 697 MiB (8%)
Title : Dub
Language : Russian
Default : Yes
Forced : No
Audio #2
ID : 3
Format : AC-3
Format/Info : Audio Coding 3
Mode extension : CM (complete main)
Format settings, Endianness : Big
Codec ID : A_AC3
Duration : 2h 32mn
Bit rate mode : Constant
Bit rate : 448 Kbps
Channel(s) : 6 channels
Channel positions : Front: L C R, Side: L R, LFE
Sampling rate : 48.0 KHz
Compression mode : Lossy
Stream size : 488 MiB (6%)
Title : Eng
Language : English
Default : No
Forced : No
Text #1
ID : 4
Format : UTF-8
Codec ID : S_TEXT/UTF8
Codec ID/Info : UTF-8 Plain Text
Title : Rus full
Language : Russian
Default : No
Forced : No
Text #2
ID : 5
Format : UTF-8
Codec ID : S_TEXT/UTF8
Codec ID/Info : UTF-8 Plain Text
Title : Eng full
Language : English
Default : No
Forced : No
Menu
00:00:00.000 : :Chapter 01
00:04:05.411 : :Chapter 02
00:08:11.157 : :Chapter 03
00:12:17.403 : :Chapter 04
00:18:25.270 : :Chapter 05
00:21:43.635 : :Chapter 06
00:24:41.646 : :Chapter 07
00:28:49.561 : :Chapter 08
00:31:05.196 : :Chapter 09
00:34:05.543 : :Chapter 10
00:37:49.600 : :Chapter 11
00:41:29.487 : :Chapter 12
00:46:13.437 : :Chapter 13
00:50:29.026 : :Chapter 14
00:55:04.301 : :Chapter 15
01:00:55.652 : :Chapter 16
01:03:43.986 : :Chapter 17
01:07:48.230 : :Chapter 18
01:13:49.258 : :Chapter 19
01:20:17.979 : :Chapter 20
01:23:54.529 : :Chapter 21
01:28:32.473 : :Chapter 22
01:31:42.497 : :Chapter 23
01:36:42.630 : :Chapter 24
01:42:34.815 : :Chapter 25
01:49:05.038 : :Chapter 26
01:53:21.628 : :Chapter 27
01:58:09.749 : :Chapter 28
02:03:44.750 : :Chapter 29
02:06:56.108 : :Chapter 30
02:10:55.347 : :Chapter 31
02:14:18.884 : :Chapter 32
02:17:29.574 : :Chapter 33
02:21:44.662 : :Chapter 34
02:24:10.808 : :Chapter 35
02:32:21.423 : :Chapter 36
[60-fps.org].t1111.torrent
Торрент: Зарегистрирован [ 2015-09-29 13:05 ] · 99F24509D5688865A155B3D046D5CF61A4BBF0AE

Скачать .torrent

Скачать

41 KB

Статус: проверено
Скачан: 47 раз
Поблагодарили:
Размер: 8,05 GB
 
Похожие Темы


Последний раз редактировалось: bot (2015-09-30 11:25), всего редактировалось 1 раз

[Цитировать]
Тимур Артыков

Наконец то норм качество. Надеюсь и оставльные будут в таком же качестве)

[Цитировать]
envy

Тимур Артыков, Других не будет!

[Цитировать]
ENIGMA

Других не будет!
А, хотелось бы... Нет слов
 
Показать сообщения:    

Текущее время: 28-Фев 12:58

Часовой пояс: UTC + 3


Вы не можете начинать темы
Вы не можете отвечать на сообщения
Вы не можете редактировать свои сообщения
Вы не можете удалять свои сообщения
Вы не можете голосовать в опросах
Вы не можете прикреплять файлы к сообщениям
Вы можете скачивать файлы