1. Longevity:
    7 years
    Posts:
    2413
    Gender:
    Male
    «Такие разные близнецы» Информация
    Название: Гадкий я 3
    Оригинальное название: Despicable Me 3
    Год выхода: 2017
    Жанр: Мультфильм, фантастика, боевик, комедия, приключения, семейный
    Режиссер: Эрик Гуильон, Кайл Балда, Пьер Коффан
    Сценарий: Синко Пол, Кен Даурио
    Продюсер: Джанет Хили, Бретт Хоффман, Кристофер Меледандри
    Персонажей озвучивали: Стив Карелл, Кристен Уиг, Трей Паркер, Миранда Косгров, Дэна Гайер, Пьер Коффан, Стив Кугэн, Джули Эндрюс, Дженни Слейт

    Сюжет:
    Грядет третье пришествие. Многодетный суперагент, роковая красотка и бессмертные миньоны на подходе. Готовьтесь. Они будут править миром.

    Страна: США
    Продолжительность: 01:29:40

    Файл
    Кодек: MPEG4/ISO/AVC/H.264
    Формат: MKV
    Качество: BDRip 720p | 60 fps
    Видео: 1280 x 536 (2.388) | 59.940 fps | 10.0 Мбит/сек
    Аудио 01: AC3 | 5.1 | 48 kHz | 384 kbps | 16 bit | Дубляж - iTunes |
    Аудио 02: AC3 | 5.1 | 48 kHz | 640 kbps | 16 bit | english |
    Субтитры: английские

    MedifInfo

    Видео
    Идентификатор : 1
    Формат : AVC
    Формат/Информация : Advanced Video Codec
    Профиль формата : [email protected]
    Параметр CABAC формата : Да
    Параметр ReFrames формата : 3 кадра
    Идентификатор кодека : V_MPEG4/ISO/AVC
    Продолжительность : 1 ч. 29 м.
    Вид битрейта : Переменный
    Битрейт : 9764 Кбит/сек
    Максимальный битрейт : 10000 Кбит/сек
    Ширина : 1280 пикселей
    Высота : 536 пикселей
    Соотношение сторон : 2,40:1
    Режим частоты кадров : Постоянный
    Частота кадров : 59,880 кадров/сек
    Частота кадров в оригинале : 59,940 кадров/сек
    Стандарт вещания : PAL
    Цветовое пространство : YUV
    Субдискретизация насыщенности : 4:2:0
    Битовая глубина : 8 бит
    Тип развёртки : Прогрессивная
    Бит/(Пиксели*Кадры) : 0.238
    Размер потока : 6,12 Гбайт (89%)
    Заголовок : www.60-fps.org
    Язык : English
    Default : Да
    Forced : Нет
    Основные цвета : BT.601 NTSC
    Характеристики трансфера : BT.601
    Коэффициенты матрицы : BT.601
    colour_range : Limited
    Аудио #1
    Идентификатор : 2
    Формат : AC-3
    Формат/Информация : Audio Coding 3
    Расширение режима : CM (complete main)
    Параметр Endianness формата : Big
    Идентификатор кодека : A_AC3
    Продолжительность : 1 ч. 29 м.
    Вид битрейта : Постоянный
    Битрейт : 384 Кбит/сек
    Каналы : 6 каналов
    Расположение каналов : Front: L C R, Side: L R, LFE
    Частота : 48,0 КГц
    Битовая глубина : 16 бит
    Метод сжатия : С потерями
    Размер потока : 246 Мбайт (3%)
    Заголовок : Дубляж - iTunes
    Язык : Russian
    Default : Да
    Forced : Нет
    Аудио #2
    Идентификатор : 3
    Формат : AC-3
    Формат/Информация : Audio Coding 3
    Расширение режима : CM (complete main)
    Параметр Endianness формата : Big
    Идентификатор кодека : A_AC3
    Продолжительность : 1 ч. 29 м.
    Вид битрейта : Постоянный
    Битрейт : 640 Кбит/сек
    Каналы : 6 каналов
    Расположение каналов : Front: L C R, Side: L R, LFE
    Частота : 48,0 КГц
    Битовая глубина : 16 бит
    Метод сжатия : С потерями
    Размер потока : 411 Мбайт (6%)
    Заголовок : Original
    Язык : English
    Default : Нет
    Forced : Нет
    Текст
    Идентификатор : 4
    Формат : UTF-8
    Идентификатор кодека : S_TEXT/UTF8
    Идентификатор кодека/Информация : UTF-8 Plain Text
    Заголовок : SDH Colored
    Язык : English
    Default : Нет
    Forced : Нет
    Меню
    00:00:00.000 : en:00:00:00.000
    00:03:06.103 : en:00:03:06.103
    00:07:57.977 : en:00:07:57.977
    00:11:12.839 : en:00:11:12.839
    00:16:15.766 : en:00:16:15.766
    00:20:07.498 : en:00:20:07.498
    00:24:07.988 : en:00:24:07.988
    00:28:57.069 : en:00:28:57.069
    00:32:55.348 : en:00:32:55.348
    00:39:01.839 : en:00:39:01.839
    00:42:44.187 : en:00:42:44.187
    00:46:47.179 : en:00:46:47.179
    00:50:55.636 : en:00:50:55.636
    00:56:12.077 : en:00:56:12.077
    01:00:02.265 : en:01:00:02.265
    01:05:41.229 : en:01:05:41.229
    01:10:14.544 : en:01:10:14.544
    01:14:33.761 : en:01:14:33.761
    01:19:29.723 : en:01:19:29.723
    01:21:56.995 : en:01:21:56.995

    Release was prepared by 60-fps.org

  2. Longevity:
    5 years 10 months
    Posts:
    11
    Gender:
    Male
    Автору респект, в кино не успел посмотреть ))
    22-Sep-2017 21:50 (after 3 hours)
  3. Longevity:
    4 years 11 months
    Posts:
    1
    Gender:
    Unknown
    amazing
    07-Dec-2017 23:07 (after 2 months 15 days)


You cannot post new topics in this forum
You cannot reply to topics in this forum
You cannot edit your posts in this forum
You cannot delete your posts in this forum
You cannot vote in polls in this forum
You cannot attach files in this forum
You cannot download files in this forum