[Цитировать]
Kryl

«Их дороги расходятся»- Информация
Название: Форсаж 8
Оригинальное название: The Fate of the Furious
Год выхода: 2017
Жанр: Боевик, триллер, криминал
Режиссер: Ф. Гэри Грей
Сценарий: Крис Морган, Гэри Скотт Томпсон
Продюсер: Рикардо Дель Рио, Вин Дизель, Майкл Фоттрел
В ролях: Вин Дизель, Дуэйн Джонсон, Джейсон Стэйтем, Мишель Родригес, Тайриз Гибсон, Лудакрис, Натали Эммануэль, Курт Расселл, Скотт Иствуд, Шарлиз Терон
--Сюжет:
Доминик и Летти проводят медовый месяц в Гаване. Все шло просто замечательно, пока Доминик не посмотрел одно видео на некоем загадочном смартфоне. После просмотра он перестает узнавать свою сожительницу, гоняется за ней по дому с мухобойкой и горшком с геранью в руках, а затем так вообще похищает электрический выключатель с военной базы в Берлине. И теперь самой крутой команде в мире необходимо объединиться с бывшими врагами и с грохотом посетить различные закоулки планеты, чтобы найти своего разбушевавшегося лидера и остановить опасную киберпреступницу
- Страна: США
Продолжительность: 02:15:57

Файл
Кодек: MPEG4/ISO/AVC/H.264
Формат: MKV
Качество: BDRip 1080p | 60 fps
Видео: 1920 x 804 (2.388) | 59.940 fps | 24.0 Мбит/сек
Аудио 1: AC3 | 5.1 | 48 kHz | 384 kbps | 16 bit | Дубляж - iTunes |
Аудио 2: AC3 | 5.1 | 48 kHz | 448 kbps | 16 bit | Eng |
Субтитры: Русские (forced, full), английские

MedifInfo

Видео
Идентификатор : 1
Формат : AVC
Формат/Информация : Advanced Video Codec
Профиль формата : High@L4.1
Параметр CABAC формата : Да
Параметр ReFrames формата : 5 кадров
Идентификатор кодека : V_MPEG4/ISO/AVC
Продолжительность : 2 ч. 15 м.
Битрейт : 24,0 Мбит/сек
Ширина : 1920 пикселей
Высота : 804 пикселя
Соотношение сторон : 2,40:1
Режим частоты кадров : Постоянный
Частота кадров : 59,880 кадров/сек
Частота кадров в оригинале : 59,940 кадров/сек
Цветовое пространство : YUV
Субдискретизация насыщенности : 4:2:0
Битовая глубина : 8 бит
Тип развёртки : Прогрессивная
Бит/(Пиксели*Кадры) : 0.260
Размер потока : 22,3 Гбайт (95%)
Заголовок : www.60-fps.org
Библиотека кодирования : x264 core 148 r2744 b97ae06
Настройки программы : cabac=1 / ref=5 / deblock=1:-3:-3 / analyse=0x3:0x113 / me=umh / subme=8 / psy=1 / psy_rd=1.00:0.25 / mixed_ref=1 / me_range=32 / chroma_me=1 / trellis=1 / 8x8dct=1 / cqm=0 / deadzone=6,6 / fast_pskip=1 / chroma_qp_offset=-4 / threads=12 / lookahead_threads=2 / sliced_threads=0 / nr=0 / decimate=0 / interlaced=0 / bluray_compat=0 / constrained_intra=0 / bframes=3 / b_pyramid=2 / b_adapt=1 / b_bias=0 / direct=3 / weightb=1 / open_gop=0 / weightp=2 / keyint=599 / keyint_min=59 / scenecut=40 / intra_refresh=0 / rc_lookahead=50 / rc=2pass / mbtree=1 / bitrate=23999 / ratetol=1.0 / qcomp=0.80 / qpmin=0 / qpmax=69 / qpstep=4 / cplxblur=20.0 / qblur=0.5 / vbv_maxrate=62500 / vbv_bufsize=78125 / nal_hrd=none / filler=0 / ip_ratio=1.10 / aq=1:0.50
Default : Да
Forced : Нет
Аудио #1
Идентификатор : 2
Формат : AC-3
Формат/Информация : Audio Coding 3
Расширение режима : CM (complete main)
Параметр Endianness формата : Big
Идентификатор кодека : A_AC3
Продолжительность : 2 ч. 15 м.
Вид битрейта : Постоянный
Битрейт : 384 Кбит/сек
Каналы : 6 каналов
Расположение каналов : Front: L C R, Side: L R, LFE
Частота : 48,0 КГц
Битовая глубина : 16 бит
Метод сжатия : С потерями
Размер потока : 373 Мбайт (2%)
Заголовок : Дубляж - iTunes
Язык : Russian
Default : Да
Forced : Нет
Аудио #2
Идентификатор : 3
Формат : AC-3
Формат/Информация : Audio Coding 3
Расширение режима : CM (complete main)
Параметр Endianness формата : Big
Идентификатор кодека : A_AC3
Продолжительность : 2 ч. 15 м.
Вид битрейта : Постоянный
Битрейт : 448 Кбит/сек
Каналы : 6 каналов
Расположение каналов : Front: L C R, Side: L R, LFE
Частота : 48,0 КГц
Битовая глубина : 16 бит
Метод сжатия : С потерями
Размер потока : 436 Мбайт (2%)
Заголовок : english
Язык : English
Default : Нет
Forced : Нет
Текст #1
Идентификатор : 4
Формат : UTF-8
Идентификатор кодека : S_TEXT/UTF8
Идентификатор кодека/Информация : UTF-8 Plain Text
Заголовок : Forced
Язык : Russian
Default : Да
Forced : Нет
Текст #2
Идентификатор : 5
Формат : UTF-8
Идентификатор кодека : S_TEXT/UTF8
Идентификатор кодека/Информация : UTF-8 Plain Text
Заголовок : Full
Язык : Russian
Default : Нет
Forced : Нет
Текст #3
Идентификатор : 6
Формат : UTF-8
Идентификатор кодека : S_TEXT/UTF8
Идентификатор кодека/Информация : UTF-8 Plain Text
Заголовок : Full
Язык : English
Default : Нет
Forced : Нет
Текст #4
Идентификатор : 7
Формат : UTF-8
Идентификатор кодека : S_TEXT/UTF8
Идентификатор кодека/Информация : UTF-8 Plain Text
Заголовок : SDH
Язык : English
Default : Нет
Forced : Нет
Меню
00:00:00.000 : en:00:00:00.000
00:13:08.913 : en:00:13:08.913
00:20:30.771 : en:00:20:30.771
00:26:38.639 : en:00:26:38.639
00:32:26.778 : en:00:32:26.778
00:36:40.573 : en:00:36:40.573
00:43:35.613 : en:00:43:35.613
00:47:45.780 : en:00:47:45.780
00:56:00.732 : en:00:56:00.732
01:04:08.303 : en:01:04:08.303
01:09:08.061 : en:01:09:08.061
01:13:24.275 : en:01:13:24.275
01:21:25.714 : en:01:21:25.714
01:29:29.948 : en:01:29:29.948
01:35:12.457 : en:01:35:12.457
01:39:55.781 : en:01:39:55.781
01:45:00.711 : en:01:45:00.711
01:53:01.858 : en:01:53:01.858
02:01:51.262 : en:02:01:51.262
02:06:45.097 : en:02:06:45.097

Релиз подготовлен 60 - fps

[Цитировать]
ENIGMA

Огромное Спасибо Овации Овации Овации

[Цитировать]
uğur demir

GOOD ADMİN GOOD VERY GOOD MAN . Привет Привет Привет THANK YOU THANK YOU :):):):):)

[Цитировать]
uğur demir

THANK YOU ADMİN VERY GOOD FİLMS. THANK YOU . COMİNG SON ADMİN PLS . THANK YOU PROMİSES Смеюсь Смеюсь Смеюсь Смеюсь Смеюсь Привет Привет
 
Показать сообщения:    

Текущее время: 21-Сен 15:30

Часовой пояс: UTC + 3


Вы не можете начинать темы
Вы не можете отвечать на сообщения
Вы не можете редактировать свои сообщения
Вы не можете удалять свои сообщения
Вы не можете голосовать в опросах
Вы не можете прикреплять файлы к сообщениям
Вы не можете скачивать файлы