[Цитировать]
Kryl

«Месть не знает границ»- Информация о фильме
Название: Форсаж 7
Оригинальное название: Furious 7
Год выхода: 2015
Жанр: Боевик, триллер, криминал
Режиссер: Джеймс Ван
Сценарий: Крис Морган, Гэри Скотт Томпсон
Продюсер: Вин Дизель, Майкл Фоттрел, Нил Х. Мориц
В ролях: Вин Дизель, Пол Уокер, Дуэйн Джонсон, Джейсон Стэйтем, Мишель Родригес, Джордана Брюстер, Тайриз Гибсон, Лудакрис, Эльза Патаки, Лукас Блэк
--О фильме:
Они покорили Токио и Рио, Лос-Анджелес и Лондон. Но мир больше не играет по их правилам. Зной арабских пустынь, неприлично высокие небоскребы, миллионы долларов на колесах и очень, очень знаменитый злодей. Скорость не знает границ.- - Страна: США
Продолжительность: 02:16:44
-- Файл
Кодек: MPEG4/ISO/AVC H.264
Формат: MKV
Качество: WEB-DL 720p
Видео: 1280 x 532 (2.406) | 59.940 fps | ~6.0 Мбит/сек
Аудио 1: AC3 | 5.1 | 48 kHz | 384 kbps | 16 bit | Дубляж [iTunes] |
Аудио 2: AC3 | 2.0 | 48 kHz | 224 kbps | 16 bit | А. Матвеев |
Аудио 3: AC3 | 2.0 | 48 kHz | 224 kbps | 16 bit | Оригинал |
Субтитры: Русские, английские

MedifInfo

Видео
Идентификатор : 1
Формат : AVC
Формат/Информация : Advanced Video Codec
Профиль формата : High@L4.1
Параметр CABAC формата : Да
Параметр ReFrames формата : 8 кадров
Идентификатор кодека : V_MPEG4/ISO/AVC
Продолжительность : 2 ч. 17 м.
Битрейт : 6999 Кбит/сек
Ширина : 1280 пикселей
Высота : 532 пикселя
Соотношение сторон : 2,40:1
Режим частоты кадров : Постоянный
Частота кадров : 59,880 кадров/сек
Частота кадров в оригинале : 59,940 кадров/сек
Цветовое пространство : YUV
Субдискретизация насыщенности : 4:2:0
Битовая глубина : 8 бит
Тип развёртки : Прогрессивная
Бит/(Пиксели*Кадры) : 0.172
Размер потока : 6,56 Гбайт (87%)
Заголовок : www.60-fps.org
Библиотека кодирования : x264 core 146 r2538 121396c
Настройки программы : cabac=1 / ref=8 / deblock=1:-2:-2 / analyse=0x3:0x133 / me=esa / subme=9 / psy=1 / psy_rd=1.00:0.25 / mixed_ref=1 / me_range=32 / chroma_me=1 / trellis=2 / 8x8dct=1 / cqm=0 / deadzone=6,6 / fast_pskip=1 / chroma_qp_offset=-4 / threads=12 / lookahead_threads=1 / sliced_threads=0 / nr=0 / decimate=0 / interlaced=0 / bluray_compat=0 / constrained_intra=0 / bframes=3 / b_pyramid=2 / b_adapt=2 / b_bias=0 / direct=3 / weightb=1 / open_gop=0 / weightp=2 / keyint=599 / keyint_min=59 / scenecut=40 / intra_refresh=0 / rc_lookahead=60 / rc=2pass / mbtree=1 / bitrate=6999 / ratetol=1.0 / qcomp=0.80 / qpmin=0 / qpmax=69 / qpstep=4 / cplxblur=20.0 / qblur=0.5 / vbv_maxrate=62500 / vbv_bufsize=78125 / nal_hrd=none / filler=0 / ip_ratio=1.10 / aq=1:0.50
Default : Да
Forced : Нет
Аудио #1
Идентификатор : 2
Формат : AC-3
Формат/Информация : Audio Coding 3
Расширение режима : CM (complete main)
Параметр Endianness формата : Big
Идентификатор кодека : A_AC3
Продолжительность : 2 ч. 17 м.
Вид битрейта : Постоянный
Битрейт : 384 Кбит/сек
Каналы : 6 каналов
Расположение каналов : Front: L C R, Side: L R, LFE
Частота : 48,0 КГц
Битовая глубина : 16 бит
Метод сжатия : С потерями
Размер потока : 377 Мбайт (5%)
Заголовок : Дубляж - iTunes
Язык : Russian
Default : Да
Forced : Нет
Аудио #2
Идентификатор : 3
Формат : AC-3
Формат/Информация : Audio Coding 3
Расширение режима : CM (complete main)
Параметр Endianness формата : Big
Идентификатор кодека : A_AC3
Продолжительность : 2 ч. 17 м.
Вид битрейта : Постоянный
Битрейт : 224 Кбит/сек
Каналы : 2 канала
Расположение каналов : Front: L R
Частота : 48,0 КГц
Битовая глубина : 16 бит
Метод сжатия : С потерями
Размер потока : 220 Мбайт (3%)
Заголовок : Matveev
Язык : Russian
Default : Нет
Forced : Нет
Аудио #3
Идентификатор : 4
Формат : AC-3
Формат/Информация : Audio Coding 3
Расширение режима : CM (complete main)
Параметр Endianness формата : Big
Идентификатор кодека : A_AC3
Продолжительность : 2 ч. 17 м.
Вид битрейта : Постоянный
Битрейт : 224 Кбит/сек
Каналы : 2 канала
Расположение каналов : Front: L R
Частота : 44,1 КГц
Битовая глубина : 16 бит
Метод сжатия : С потерями
Размер потока : 220 Мбайт (3%)
Заголовок : ENG
Язык : English
Default : Нет
Forced : Нет
Текст #1
Идентификатор : 5
Формат : UTF-8
Идентификатор кодека : S_TEXT/UTF8
Идентификатор кодека/Информация : UTF-8 Plain Text
Заголовок : Matveev
Язык : Russian
Default : Нет
Forced : Нет
Текст #2
Идентификатор : 6
Формат : UTF-8
Идентификатор кодека : S_TEXT/UTF8
Идентификатор кодека/Информация : UTF-8 Plain Text
Заголовок : eng
Язык : English
Default : Нет
Forced : Нет
Меню
00:00:00.000 : en:1
00:03:59.000 : en:2
00:09:59.000 : en:3
00:15:08.000 : en:4
00:24:23.000 : en:5
00:31:54.000 : en:6
00:39:55.000 : en:7
00:44:51.000 : en:8
00:50:21.000 : en:9
01:00:41.000 : en:10
01:04:27.000 : en:11
01:12:25.000 : en:12
01:20:36.000 : en:13
01:30:48.000 : en:14
01:35:55.000 : en:15
01:43:07.000 : en:16
01:51:24.000 : en:17
01:55:58.000 : en:18
02:03:46.000 : en:19
02:08:58.000 : en:20

Релиз подготовлен 60 - fps



Последний раз редактировалось: Kryl (2015-10-23 14:23), всего редактировалось 1 раз

[Цитировать]
Kryl

3240Даешь 1080р !
Это когда BD выйдет , тогда и будет фулка ..

[Цитировать]
HANNIBAL_68

Спасибо
 
Показать сообщения:    

Текущее время: 06-Дек 15:09

Часовой пояс: UTC + 3


Вы не можете начинать темы
Вы не можете отвечать на сообщения
Вы не можете редактировать свои сообщения
Вы не можете удалять свои сообщения
Вы не можете голосовать в опросах
Вы не можете прикреплять файлы к сообщениям
Вы не можете скачивать файлы