[Цитировать]
mimok

Форсаж 7 / Furious 7 (2015) BDRip 720p | Расширенная версия | 48fps«Месть не знает границ»- Информация о фильме
Название: Форсаж 7
Оригинальное название: Furious Seven
Год выхода: 2015
Жанр: Боевик, триллер, криминал
Режиссер: Джеймс Ван
Продюсер: Вин Дизель, Майкл Фоттрел, Нил Х. Мориц
В ролях: Вин Дизель, Пол Уокер, Дуэйн Джонсон, Джейсон Стэйтем, Мишель Родригес, Джордана Брюстер, Тайриз Гибсон, Лудакрис, Эльза Патаки, Лукас Блэк
Описание фильма:
Они покорили Токио и Рио, Лос-Анджелес и Лондон. Но мир больше не играет по их правилам. Зной арабских пустынь, неприлично высокие небоскребы, миллионы долларов на колесах и очень, очень знаменитый злодей. Скорость не знает границ.
Страна: США
Студия: Universal Pictures, Fast 7 Productions
Продолжительность: 02:19:54
Перевод: Профессиональный (полное дублирование)
Субтитры: Отсутствуют

Дата мировой премьеры: 16 марта 2015
Дата российской премьеры: 9 апреля 2015, «UPI»
Файл
Формат: MKV
Кодек: MPEG-4 AVC/H.264
Качество: BDRip 720p
Видео: ~ 6375 Кбит/сек, 1280 x 544, 47.952 кадров/сек
Аудио: AC3 5.1, 48.0 KHz, 448 Кбит/сек - Русский

MediaInfo

Общее
Уникальный идентификатор : 236163306373310074219521712697011650299 (0xB1AB65FA5486F8CC9E95026F16FCBEFB)
Полное имя : D:\Торренты\Furious 7 48fps.mkv
Формат : Matroska
Версия формата : Version 2
Размер файла : 6,80 Гбайт
Продолжительность : 2 ч. 19 м.
Общий поток : 6961 Кбит/сек
Дата кодирования : UTC 2015-08-15 06:28:31
Программа кодирования : mkvmerge v6.1.0 ('Old Devil') built on Mar 4 2013 09:10:42
Библиотека кодирования : libebml v1.3.0 + libmatroska v1.4.0
Видео
Идентификатор : 1
Формат : AVC
Формат/Информация : Advanced Video Codec
Профиль формата : High@L4.1
Параметр CABAC формата : Да
Параметр ReFrames формата : 6 кадров
Идентификатор кодека : V_MPEG4/ISO/AVC
Продолжительность : 2 ч. 19 м.
Битрейт : 6375 Кбит/сек
Ширина : 1280 пикселей
Высота : 544 пикселя
Соотношение сторон : 2,35:1
Режим частоты кадров : Постоянный
Частота кадров : 47,952 кадров/сек
Цветовое пространство : YUV
Субдискретизация насыщенности : 4:2:0
Битовая глубина : 8 бит
Тип развёртки : Прогрессивная
Бит/(Пиксели*Кадры) : 0.191
Размер потока : 6,23 Гбайт (92%)
Библиотека кодирования : x264 core 130 r2273 b3065e6
Настройки программы : cabac=1 / ref=6 / deblock=1:0:0 / analyse=0x3:0x133 / me=umh / subme=8 / psy=1 / psy_rd=1.00:0.15 / mixed_ref=1 / me_range=20 / chroma_me=1 / trellis=2 / 8x8dct=1 / cqm=0 / deadzone=21,11 / fast_pskip=0 / chroma_qp_offset=-3 / threads=6 / lookahead_threads=2 / sliced_threads=0 / nr=0 / decimate=0 / interlaced=0 / bluray_compat=0 / constrained_intra=0 / bframes=8 / b_pyramid=2 / b_adapt=2 / b_bias=0 / direct=1 / weightb=1 / open_gop=0 / weightp=2 / keyint=250 / keyint_min=25 / scenecut=40 / intra_refresh=0 / rc=crf / mbtree=0 / crf=19.0 / qcomp=0.63 / qpmin=10 / qpmax=51 / qpstep=4 / ip_ratio=1.40 / pb_ratio=1.30 / aq=1:1.20
Default : Да
Forced : Нет
Аудио
Идентификатор : 2
Формат : AC-3
Формат/Информация : Audio Coding 3
Расширение режима : CM (complete main)
Параметр Endianness формата : Big
Идентификатор кодека : A_AC3
Продолжительность : 2 ч. 19 м.
Вид битрейта : Постоянный
Битрейт : 448 Кбит/сек
Каналы : 6 каналов
Расположение каналов : Front: L C R, Side: L R, LFE
Частота : 48,0 КГц
Битовая глубина : 16 бит
Метод сжатия : С потерями
Размер потока : 448 Мбайт (6%)
Default : Да
Forced : Нет

Скринлист

Скриншоты:

Релиз подготовлен 60 - fps

[60-fps.org].t989.torrent
Торрент: Зарегистрирован [ 2015-08-21 17:59 ] · 0239C6FD1934194236009454B991C796040E9889

Скачать .torrent

Скачать

34 KB

Статус: проверено
Скачан: 53 раз
Поблагодарили:
Размер: 6,8 GB
 
Похожие Темы

[Цитировать]
envy

35291280 x 544
откуда?

[Цитировать]
envy

Я так понимаю ресайзер от svp?

[Цитировать]
mimok

3533
35291280 x 544
откуда?
от туда! и что на ваш взгляд не так?

[Цитировать]
envy

mimok, в оригинале после обрезки должно быть 1280*534

[Цитировать]
mimok

3537mimok, в оригинале после обрезки должно быть 1280*534
у меня 1280*544

[Цитировать]
Walksy

Спасибо за труды!
 
Показать сообщения:    

Текущее время: 22-Фев 16:25

Часовой пояс: UTC + 3


Вы не можете начинать темы
Вы не можете отвечать на сообщения
Вы не можете редактировать свои сообщения
Вы не можете удалять свои сообщения
Вы не можете голосовать в опросах
Вы не можете прикреплять файлы к сообщениям
Вы можете скачивать файлы