Тор: Рагнарёк / Thor: Ragnarok (2017) BDRip 1080p | 60 fps Стражи Галактики. Часть 2 / Guardians of the Galaxy Vol. 2 (2017) BDRip 1080p | 60 fps Мстители: Эра Альтрона / Avengers: Age of Ultron (2015) BDRip 1080p | 60 fps Человек-паук: Возвращение домой / Spider-Man: Homecoming (2017) BDRip 1080p | 60 fps Валериан и город тысячи планет / Valerian and the City of a Thousand Planets (2017) BDRip 1080p | 60 fps Доктор Стрэндж / Doctor Strange (2016) BDRip 1080p | 60 fps Пираты Карибского моря: Мертвецы не рассказывают сказки / Pirates of the Caribbean: Dead Men Tell No Tales (2017) BDRip 1080p | 60 fps Аватар / Avatar (2009) BDRip 1080p | 60 fps
  1. Стаж:
    1 год 9 месяцев
    Сообщений:
    459
    Пол:
    Мужской
    Фильм «Махнемся супругами?» Фильм- Информация
    Название: Формула любви для узников брака
    Оригинальное название: Couples Retreat
    Год выхода: 2009
    Жанр: комедия
    Режиссер: Питер Биллингсли
    Сценарий: Джон Фавро, Винс Вон, Дэна Фокс
    Продюсер: Скотт Стубер, Винс Вон, Дэна Фокс
    В ролях: Винс Вон,Джейсон Бейтман,Фэйзон Лав,Джон Фавро,Малин Акерман,Кристен Белл,Кристин Дэвис,Кали Хоук,Таша Смит,Карлос Понсе
    --Сюжет:
    Несколько семейных пар отправляются на тропический остров по программе укрепления брака. И если одна из пар действительно хочет спасти свои отношения, то остальные хотят просто развлечься, но со временем понимают, что им тоже придётся работать над своим браком…-- Страна: США
    Продолжительность: 01:53:40

    Файл
    Кодек: MPEG4/ISO/AVC H.264/High@L4.1
    Формат: MKV
    Качество: BDRip 1080p | 60 fps
    Видео: 1920 x 1040 (1.846) | 59.940 fps | 13,0 Мбит/сек
    Аудио 1: AC-3| 5.1 | 48 kHz | 384 Кбит/сек | 16 bit | Дубляж
    Аудио 3: AC-3| 5.1 | 48 kHz | 640 Кбит/сек | 16 bit | Оригинал
    Субтитры:

    MedifInfo

    Видео
    Идентификатор : 1
    Формат : AVC
    Формат/Информация : Advanced Video Codec
    Профиль формата : High@L4.1
    Параметр CABAC формата : Да
    Параметр ReFrames формата : 4 кадра
    Идентификатор кодека : V_MPEG4/ISO/AVC
    Продолжительность : 1 ч. 53 м.
    Битрейт : 13,0 Мбит/сек
    Ширина : 1920 пикселей
    Высота : 1040 пикселей
    Соотношение сторон : 1,85:1
    Режим частоты кадров : Постоянный
    Частота кадров : 59,940 (60000/1001) кадров/сек
    Цветовое пространство : YUV
    Субдискретизация насыщенности : 4:2:0
    Битовая глубина : 8 бит
    Тип развёртки : Прогрессивная
    Бит/(Пиксели*Кадры) : 0.109
    Размер потока : 10,3 Гбайт (93%)
    Заголовок : Талчмба: 60-fps.org
    Библиотека кодирования : x264 core 146 r2538 121396c
    Настройки программы : cabac=1 / ref=3 / deblock=1:-1:-1 / analyse=0x3:0x113 / me=umh / subme=9 / psy=1 / psy_rd=1.00:0.15 / mixed_ref=1 / me_range=32 / chroma_me=1 / trellis=1 / 8x8dct=1 / cqm=0 / deadzone=21,11 / fast_pskip=1 / chroma_qp_offset=-3 / threads=12 / lookahead_threads=2 / sliced_threads=0 / nr=0 / decimate=1 / interlaced=0 / bluray_compat=0 / constrained_intra=0 / bframes=3 / b_pyramid=2 / b_adapt=1 / b_bias=0 / direct=3 / weightb=1 / open_gop=0 / weightp=2 / keyint=599 / keyint_min=59 / scenecut=40 / intra_refresh=0 / rc_lookahead=50 / rc=2pass / mbtree=1 / bitrate=13000 / ratetol=1.0 / qcomp=0.50 / qpmin=0 / qpmax=69 / qpstep=4 / cplxblur=20.0 / qblur=0.5 / vbv_maxrate=50000 / vbv_bufsize=62500 / nal_hrd=none / filler=0 / ip_ratio=1.40 / aq=1:1.00
    Язык : English
    Default : Да
    Forced : Нет
    Аудио #1
    Идентификатор : 2
    Формат : AC-3
    Формат/Информация : Audio Coding 3
    Расширение режима : CM (complete main)
    Параметр Endianness формата : Big
    Идентификатор кодека : A_AC3
    Продолжительность : 1 ч. 53 м.
    Вид битрейта : Постоянный
    Битрейт : 384 Кбит/сек
    Каналы : 6 каналов
    Расположение каналов : Front: L C R, Side: L R, LFE
    Частота : 48,0 КГц
    Частота кадров : 31,250 кадров/сек (1536 spf)
    Битовая глубина : 16 бит
    Метод сжатия : С потерями
    Размер потока : 312 Мбайт (3%)
    Заголовок : Дублированный
    Язык : Russian
    Default : Да
    Forced : Нет
    Аудио #2
    Идентификатор : 3
    Формат : AC-3
    Формат/Информация : Audio Coding 3
    Расширение режима : CM (complete main)
    Параметр Endianness формата : Big
    Идентификатор кодека : A_AC3
    Продолжительность : 1 ч. 53 м.
    Вид битрейта : Постоянный
    Битрейт : 640 Кбит/сек
    Каналы : 6 каналов
    Расположение каналов : Front: L C R, Side: L R, LFE
    Частота : 48,0 КГц
    Частота кадров : 31,250 кадров/сек (1536 spf)
    Битовая глубина : 16 бит
    Метод сжатия : С потерями
    Размер потока : 520 Мбайт (5%)
    Заголовок : Оригинал
    Язык : English
    Default : Нет
    Forced : Нет
    Текст #1
    Идентификатор : 4
    Формат : UTF-8
    Идентификатор кодека : S_TEXT/UTF8
    Идентификатор кодека/Информация : UTF-8 Plain Text
    Продолжительность : 1 ч. 13 м.
    Битрейт : 0 бит/сек
    Count of elements : 4
    Размер потока : 195 байт (0%)
    Заголовок : Forced
    Язык : Russian
    Default : Да
    Forced : Нет
    Текст #2
    Идентификатор : 5
    Формат : UTF-8
    Идентификатор кодека : S_TEXT/UTF8
    Идентификатор кодека/Информация : UTF-8 Plain Text
    Продолжительность : 1 ч. 53 м.
    Битрейт : 106 бит/сек
    Count of elements : 2424
    Размер потока : 88,1 Кбайт (0%)
    Язык : English
    Default : Нет
    Forced : Нет
    Меню
    00:00:00.000 : en:00:00:00.000
    00:05:52.185 : en:00:05:52.185
    00:10:46.604 : en:00:10:46.604
    00:18:19.556 : en:00:18:19.556
    00:23:17.395 : en:00:23:17.395
    00:28:06.976 : en:00:28:06.976
    00:33:49.444 : en:00:33:49.444
    00:38:37.315 : en:00:38:37.315
    00:45:11.834 : en:00:45:11.834
    00:47:37.187 : en:00:47:37.187
    00:51:36.885 : en:00:51:36.885
    00:56:23.296 : en:00:56:23.296
    01:02:22.739 : en:01:02:22.739
    01:08:35.736 : en:01:08:35.736
    01:11:29.368 : en:01:11:29.368
    01:18:53.979 : en:01:18:53.979
    01:30:02.939 : en:01:30:02.939
    01:36:07.428 : en:01:36:07.428
    01:43:57.564 : en:01:43:57.564
    01:48:50.065 : en:01:48:50.065
  2. Стаж:
    1 год 6 месяцев
    Сообщений:
    92
    Пол:
    Мужской
    Фигня какая-то, а не комедия...
    19-Янв-2018 18:27 (спустя 7 дней)
  3. Стаж:
    1 год 9 месяцев
    Сообщений:
    459
    Пол:
    Мужской
    Смеюсь
    9219Фигня какая-то, а не комедия...
    бывает...
    19-Янв-2018 18:46 (спустя 18 минут)


Вы не можете начинать темы
Вы не можете отвечать на сообщения
Вы не можете редактировать свои сообщения
Вы не можете удалять свои сообщения
Вы не можете голосовать в опросах
Вы не можете прикреплять файлы к сообщениям
Вы не можете скачивать файлы