[Цитировать]
Lucifer

Формула любви для узников брака / Couples Retreat
Год выпуска: 2009
Жанр: Комедия.
Страна: США
Режиссер: Питер Биллингсли
Продолжительность: 01:53:41
Перевод: Профессиональный (дублированный)
В ролях: Винс Вон, Джейсон Бейтман, Файзон Лав, Джон Фавро, Малин Акерман, Кристен Белл, Кристин Дэвис, Кали Хоук, Таша Смит, Карлос Понце, Питер Серафинович, Жан Рено, Темура Моррисон, Джонна Уолш, Гэтлин Гриффит, Колин Байоччи, Вернон Вон, Джим МакМахон, Дэниэл Кейдж Теодор, Филлип Максвелл Джордан
Описание: Несколько семейных пар отправляются на тропический остров по программе укрепления брака. И если одна из пар действительно хочет спасти свои отношения, то остальные хотят просто развлечься, но со временем понимают, что им тоже придётся работать над своим браком.
Бюджет: 70,000,000 $


Формат видео: MKV
Качество видео: BDRip 1080p | 60fps
Видео кодек: H.264
Аудио кодек: AC3
Видео: 1920x1040 | 59.940 fps | 14.0 Мбит/сек
Аудио: AC3 | 5.1 | 48 kHz | 384 kbps | 8 bit | Дубляж |

Отчёт MediaInfo

Видео
Идентификатор : 1
Формат : AVC
Формат/Информация : Advanced Video Codec
Профиль формата : High@L4.2
Параметр CABAC формата : Да
Параметр ReFrames формата : 4 кадра
Режим смешивания : Header stripping
Идентификатор кодека : V_MPEG4/ISO/AVC
Продолжительность : 1 ч. 53 м.
Битрейт : 13,5 Мбит/сек
Ширина : 1920 пикселей
Высота : 1040 пикселей
Соотношение сторон : 1,85:1
Режим частоты кадров : Постоянный
Частота кадров : 60,000 кадров/сек
Частота кадров в оригинале : 59,940 кадров/сек
Цветовое пространство : YUV
Субдискретизация насыщенности : 4:2:0
Битовая глубина : 8 бит
Тип развёртки : Прогрессивная
Бит/(Пиксели*Кадры) : 0.113
Размер потока : 10,5 Гбайт (95%)
Библиотека кодирования : x264 core 146 r2538 121396c
Настройки программы : cabac=1 / ref=3 / deblock=1:-2:-2 / analyse=0x3:0x113 / me=hex / subme=7 / psy=1 / psy_rd=1.00:0.25 / mixed_ref=1 / me_range=16 / chroma_me=1 / trellis=1 / 8x8dct=1 / cqm=0 / deadzone=6,6 / fast_pskip=1 / chroma_qp_offset=-4 / threads=6 / lookahead_threads=1 / sliced_threads=0 / nr=0 / decimate=0 / interlaced=0 / bluray_compat=0 / constrained_intra=0 / bframes=3 / b_pyramid=2 / b_adapt=1 / b_bias=0 / direct=1 / weightb=1 / open_gop=0 / weightp=2 / keyint=599 / keyint_min=59 / scenecut=40 / intra_refresh=0 / rc_lookahead=40 / rc=2pass / mbtree=1 / bitrate=13500 / ratetol=1.0 / qcomp=0.80 / qpmin=0 / qpmax=69 / qpstep=4 / cplxblur=20.0 / qblur=0.5 / ip_ratio=1.10 / aq=1:0.50
Default : Да
Forced : Нет
Аудио
Идентификатор : 2
Формат : AC-3
Формат/Информация : Audio Coding 3
Расширение режима : CM (complete main)
Параметр Endianness формата : Big
Режим смешивания : Header stripping
Идентификатор кодека : A_AC3
Продолжительность : 1 ч. 53 м.
Вид битрейта : Постоянный
Битрейт : 384 Кбит/сек
Каналы : 6 каналов
Расположение каналов : Front: L C R, Side: L R, LFE
Частота : 48,0 КГц
Метод сжатия : С потерями
Размер потока : 312 Мбайт (3%)
Заголовок : Дублированный
Язык : Russian
Default : Да
Forced : Нет
Меню
00:00:00.000 : en:00:00:00.000
00:05:52.185 : en:00:05:52.185
00:10:46.604 : en:00:10:46.604
00:18:19.556 : en:00:18:19.556
00:23:17.395 : en:00:23:17.395
00:28:06.976 : en:00:28:06.976
00:33:49.444 : en:00:33:49.444
00:38:37.315 : en:00:38:37.315
00:45:11.834 : en:00:45:11.834
00:47:37.187 : en:00:47:37.187
00:51:36.885 : en:00:51:36.885
00:56:23.296 : en:00:56:23.296
01:02:22.739 : en:01:02:22.739
01:08:35.736 : en:01:08:35.736

Скриншоты



Последний раз редактировалось: Lucifer (2015-08-23 20:53), всего редактировалось 1 раз
 
Показать сообщения:    

Текущее время: 02-Дек 21:05

Часовой пояс: UTC + 3


Вы не можете начинать темы
Вы не можете отвечать на сообщения
Вы не можете редактировать свои сообщения
Вы не можете удалять свои сообщения
Вы не можете голосовать в опросах
Вы не можете прикреплять файлы к сообщениям
Вы не можете скачивать файлы