Стражи Галактики. Часть 2 / Guardians of the Galaxy Vol. 2 (2017) BDRip 1080p | 60 fps Пираты Карибского моря: Мертвецы не рассказывают сказки / Pirates of the Caribbean: Dead Men Tell No Tales (2017) BDRip 1080p | 60 fps Человек-паук: Возвращение домой / Spider-Man: Homecoming (2017) BDRip 1080p | 60 fps Валериан и город тысячи планет / Valerian and the City of a Thousand Planets (2017) BDRip 1080p | 60 fps Тор: Рагнарёк / Thor: Ragnarok (2017) BDRip 1080p | 60 fps Мстители: Эра Альтрона / Avengers: Age of Ultron (2015) BDRip 1080p | 60 fps Форсаж 8 / The Fate of the Furious (2017) BDRip 1080p | 60 fps Тёмная башня / The Dark Tower (2017) BDRip 720p | 60 fps
  1. Стаж:
    3 года 6 месяцев
    Сообщений:
    2290
    Пол:
    Мужской
    «Based on an idea by Daniel Kraus And Guillermo del Toro» Информация
    Название: Форма воды
    Оригинальное название: The Shape of Water
    Год выхода: 2017
    Жанр: Фэнтези, драма, приключения
    Режиссер: Гильермо дель Торо
    Сценарий: Гильермо дель Торо, Ванесса Тейлор
    Продюсер: Дж. Майлз Дэйл, Гильермо дель Торо
    В ролях: Салли Хокинс, Майкл Шеннон, Ричард Дженкинс, Октавия Спенсер, Майкл Стулбарг, Даг Джонс, Дэвид Хьюлетт, Ник Сирси, Стюарт Арнотт, Найджел Беннетт

    Сюжет:
    1962 год. Холодная война империалистов всех мастей против остального прогрессивного человечества разрывает мир на части с особым цинизмом. Элайза - немая и скромная от рождения "серая мышка" с серой жизнью, живет на чердаке городского кинотеатра, работает менеджером по уборке территории в сверхсекретной военной лаборатории в Балтиморе и испытывает легкое недомогание от отсутствия крепкого мужского плеча. Однажды в лабораторию привозят новый "объект" для опытов. Элайза узнает, что это существо - гуманоид мужского пола с мелкими недостатками в виде внешности амфибии. Она начинает исподволь присматриваться к существу, подкармливать его вареными яйцами под романтическую музыку, кокетничать и вообще всячески строить ему глазки. Постепенно между ними возникает полная любовь и взаимопонимание. И когда человека-амфибию окончательно решают убить и препарировать для дальнейшего изучения, Элайза организовывает своему возлюбленному дерзкий побег.

    Страна: США
    Продолжительность: 02:03:19

    Файл
    Кодек: H.264
    Формат: MKV
    Качество: BDRip 1080p | 60 fps
    Видео: 1920 x 1036 (1.853) | 59.940 fps | 27.0 Мбит/сек
    Аудио 01: AC3 | 5.1 | 48 kHz | 384 kbps | 16 bit | Дубляж - iTunes |
    Аудио 02: AC3 | 5.1 | 48 kHz | 448 kbps | 16 bit | english |
    Субтитры: Русские (форс., стилизованные, хардсаб), русские (x2), английские (Full + SDH + SDH-Colored)

    MedifInfo

    Видео
    Идентификатор : 1
    Формат : AVC
    Формат/Информация : Advanced Video Codec
    Профиль формата : High@L4.1
    Параметр CABAC формата : Да
    Параметр ReFrames формата : 4 кадра
    Идентификатор кодека : V_MPEG4/ISO/AVC
    Продолжительность : 2 ч. 3 м.
    Битрейт : 27,0 Мбит/сек
    Ширина : 1920 пикселей
    Высота : 1036 пикселей
    Соотношение сторон : 1,85:1
    Режим частоты кадров : Постоянный
    Частота кадров : 59,880 кадров/сек
    Частота кадров в оригинале : 59,940 кадров/сек
    Цветовое пространство : YUV
    Субдискретизация насыщенности : 4:2:0
    Битовая глубина : 8 бит
    Тип развёртки : Прогрессивная
    Бит/(Пиксели*Кадры) : 0.227
    Размер потока : 22,8 Гбайт (95%)
    Заголовок : www.60-fps.org
    Библиотека кодирования : x264 core 152 r2851 ba24899
    Настройки программы : cabac=1 / ref=4 / deblock=1:-3:-3 / analyse=0x3:0x113 / me=hex / subme=8 / psy=1 / psy_rd=1.00:0.25 / mixed_ref=1 / me_range=16 / chroma_me=1 / trellis=2 / 8x8dct=1 / cqm=0 / deadzone=6,6 / fast_pskip=1 / chroma_qp_offset=-4 / threads=12 / lookahead_threads=2 / sliced_threads=0 / nr=0 / decimate=0 / interlaced=0 / bluray_compat=0 / constrained_intra=0 / bframes=3 / b_pyramid=2 / b_adapt=1 / b_bias=0 / direct=3 / weightb=1 / open_gop=0 / weightp=2 / keyint=599 / keyint_min=59 / scenecut=40 / intra_refresh=0 / rc_lookahead=50 / rc=2pass / mbtree=1 / bitrate=26999 / ratetol=1.0 / qcomp=0.80 / qpmin=0 / qpmax=69 / qpstep=4 / cplxblur=20.0 / qblur=0.5 / vbv_maxrate=62500 / vbv_bufsize=78125 / nal_hrd=none / filler=0 / ip_ratio=1.10 / aq=1:0.50
    Default : Да
    Forced : Нет
    Аудио #1
    Идентификатор : 2
    Формат : AC-3
    Формат/Информация : Audio Coding 3
    Расширение режима : CM (complete main)
    Параметр Endianness формата : Big
    Идентификатор кодека : A_AC3
    Продолжительность : 2 ч. 3 м.
    Вид битрейта : Постоянный
    Битрейт : 384 Кбит/сек
    Каналы : 6 каналов
    Расположение каналов : Front: L C R, Side: L R, LFE
    Частота : 48,0 КГц
    Битовая глубина : 16 бит
    Метод сжатия : С потерями
    Размер потока : 339 Мбайт (1%)
    Заголовок : Дубляж - iTunes
    Язык : Russian
    Default : Да
    Forced : Нет
    Аудио #2
    Идентификатор : 3
    Формат : AC-3
    Формат/Информация : Audio Coding 3
    Расширение режима : CM (complete main)
    Параметр Endianness формата : Big
    Идентификатор кодека : A_AC3
    Продолжительность : 2 ч. 3 м.
    Вид битрейта : Постоянный
    Битрейт : 448 Кбит/сек
    Каналы : 6 каналов
    Расположение каналов : Front: L C R, Side: L R, LFE
    Частота : 48,0 КГц
    Битовая глубина : 16 бит
    Метод сжатия : С потерями
    Размер потока : 395 Мбайт (2%)
    Заголовок : english
    Язык : English
    Default : Нет
    Forced : Нет
    Текст #1
    Идентификатор : 4
    Формат : UTF-8
    Идентификатор кодека : S_TEXT/UTF8
    Идентификатор кодека/Информация : UTF-8 Plain Text
    Заголовок : iTunes
    Язык : Russian
    Default : Нет
    Forced : Нет
    Текст #2
    Идентификатор : 5
    Формат : UTF-8
    Идентификатор кодека : S_TEXT/UTF8
    Идентификатор кодека/Информация : UTF-8 Plain Text
    Заголовок : Focs studios
    Язык : Russian
    Default : Нет
    Forced : Нет
    Текст #3
    Идентификатор : 6
    Формат : UTF-8
    Идентификатор кодека : S_TEXT/UTF8
    Идентификатор кодека/Информация : UTF-8 Plain Text
    Заголовок : Full
    Язык : English
    Default : Нет
    Forced : Нет
    Текст #4
    Идентификатор : 7
    Формат : UTF-8
    Идентификатор кодека : S_TEXT/UTF8
    Идентификатор кодека/Информация : UTF-8 Plain Text
    Заголовок : SDH
    Язык : English
    Default : Нет
    Forced : Нет
    Текст #5
    Идентификатор : 8
    Формат : UTF-8
    Идентификатор кодека : S_TEXT/UTF8
    Идентификатор кодека/Информация : UTF-8 Plain Text
    Заголовок : SDH-Colored
    Язык : English
    Default : Нет
    Forced : Нет
    Меню
    00:00:00.000 : :00:00:00.000
    00:06:24.467 : :00:06:24.467
    00:12:54.774 : :00:12:54.774
    00:18:32.987 : :00:18:32.987
    00:23:45.591 : :00:23:45.591
    00:29:39.653 : :00:29:39.653
    00:35:29.835 : :00:35:29.836
    00:39:30.535 : :00:39:30.535
    00:42:42.435 : :00:42:42.435
    00:48:34.036 : :00:48:34.036
    00:52:26.935 : :00:52:26.935
    00:57:30.197 : :00:57:30.197
    01:01:52.542 : :01:01:52.542
    01:07:35.551 : :01:07:35.551
    01:12:13.496 : :01:12:13.496
    01:17:50.791 : :01:17:50.791
    01:21:17.122 : :01:21:17.122
    01:26:05.911 : :01:26:05.911
    01:32:48.480 : :01:32:48.480
    01:37:18.750 : :01:37:18.750
    01:43:24.115 : :01:43:24.115
    01:46:06.610 : :01:46:06.610
    01:50:31.667 : :01:50:31.667
    01:58:34.858 : :01:58:34.858

    Релиз подготовлен 60 - fps

  2. Стаж:
    3 года 6 месяцев
    Сообщений:
    2290
    Пол:
    Мужской
    Добавлена дорожка Дубляж - iTunes + субтитры


    Последний раз редактировалось: Kryl (2018-04-01 17:07), всего редактировалось 1 раз
    01-Апр-2018 10:24 (спустя 27 дней)
  3. Стаж:
    1 год 5 месяцев
    Сообщений:
    91
    Пол:
    Мужской
    "серая мышка" с серой жизнью живет на чердаке городского кинотеатра, работает менеджером по уборке территории в сверхсекретной военной лаборатории
    Действительно, фэнтези. Как живущую на чердаке кинотеатра, т.е. не имеющую постоянной прописки, могли допустить на территорию сверхсекретной военной лаборатории? В России за это сразу бы начальника СБ сняли.
    01-Апр-2018 14:43 (спустя 4 часа)
  4. Стаж:
    3 года 6 месяцев
    Сообщений:
    2290
    Пол:
    Мужской
    Cynep, Смеюсь
    01-Апр-2018 16:41 (спустя 1 час 58 минут)


Вы не можете начинать темы
Вы не можете отвечать на сообщения
Вы не можете редактировать свои сообщения
Вы не можете удалять свои сообщения
Вы не можете голосовать в опросах
Вы не можете прикреплять файлы к сообщениям
Вы не можете скачивать файлы