Физрук (2 cезон) 1-20 серий-- Год выпуска: 2014 г.
Жанр: Комедийный сериал
Страна: Россия, Good Story Media по заказу ТНТ
Режиссер: Фёдор Стуков, Сергей Сенцов
Продолжительность: 08:00:53
Перевод: Не требуется--В ролях: Анастасия Панина, Дмитрий Нагиев, Андрей Крыжний, Карина Мишулина, Максим Артамонов, Наталья Коренная, Владимир Жеребцов, Артур Сопельник, Ян Цапник, Елена Муравьёва, Роман Индык, Елена Коллегова--Описание: Сериал расскажет о начальнике охраны крупного бизнесмена, которого хозяин увольняет за устаревшие методы работы, приобретенные главным героем во время бурного бандитского прошлого. Новоиспеченный безработный и бывший начальник охраны устраивается физруком в школу, где учится дочь его бывшего босса, в надежде наладить с ним отношения и вернуться на прежнюю работу.--Формат видео: MKV
Качество видео: WEB-DL 720p | 50fps
Видео кодек: H.264
Аудио кодек: AC3
Видео: 1280x720 (16:9), 50.000 fps, AVC, 6 106 Kbps
Аудио: AC3, 192 Kbps, 48.0 KHz, 2 ch--Релиз by:

Отчёт MediaInfo

General
Complete name : 02.Fizruk.2014 (1).mkv
Format : Matroska
File size : 1.01 GiB
Duration : 22mn 55s
Overall bit rate : 6 304 Kbps
Movie name : Fizruk-2.(02.seriya).2014.WEB-DL.(720p).MediaClub
Encoded date : UTC 2015-06-20 16:01:02
Writing application : mkvmerge v7.0.0 ('Where We Going') 64bit built on Jun 9 2014 15:16:27
Writing library : libebml v1.3.0 + libmatroska v1.4.1
Video
ID : 2
Format : AVC
Format/Info : Advanced Video Codec
Format profile : High@L4.1
Format settings, CABAC : Yes
Format settings, ReFrames : 9 frames
Muxing mode : Container profile=Unknown@4.1
Codec ID : V_MPEG4/ISO/AVC
Duration : 22mn 55s
Bit rate : 6 106 Kbps
Width : 1 280 pixels
Height : 720 pixels
Display aspect ratio : 16:9
Frame rate : 50.000 fps
Color space : YUV
Chroma subsampling : 4:2:0
Bit depth : 8 bits
Scan type : Progressive
Bits/(Pixel*Frame) : 0.133
Stream size : 982 MiB (95%)
Writing library : x264 core 146 r2538 121396c
Encoding settings : cabac=1 / ref=9 / deblock=1:0:0 / analyse=0x3:0 / me=umh / subme=9 / psy=1 / psy_rd=1.00:0.10 / mixed_ref=1 / me_range=42 / chroma_me=0 / trellis=2 / 8x8dct=1 / cqm=0 / deadzone=21,11 / fast_pskip=0 / chroma_qp_offset=-3 / threads=12 / lookahead_threads=3 / sliced_threads=0 / nr=0 / decimate=0 / interlaced=0 / bluray_compat=0 / constrained_intra=0 / bframes=16 / b_pyramid=2 / b_adapt=2 / b_bias=0 / direct=3 / weightb=1 / open_gop=0 / weightp=2 / keyint=600 / keyint_min=50 / scenecut=40 / intra_refresh=0 / rc=2pass / mbtree=0 / bitrate=6106 / ratetol=1.0 / qcomp=0.60 / qpmin=0 / qpmax=69 / qpstep=4 / cplxblur=20.0 / qblur=0.5 / ip_ratio=1.40 / pb_ratio=1.30 / aq=1:0.90
Audio
ID : 1
Format : AC-3
Format/Info : Audio Coding 3
Mode extension : CM (complete main)
Codec ID : A_AC3
Duration : 22mn 55s
Bit rate mode : Constant
Bit rate : 192 Kbps
Channel(s) : 2 channels
Channel positions : Front: L R
Sampling rate : 48.0 KHz
Bit depth : 16 bits
Stream size : 31.5 MiB (3%)
Language : Russian

Скриншоты

 
Показать сообщения:    

Текущее время: 10-Дек 19:39

Часовой пояс: UTC + 3


Вы не можете начинать темы
Вы не можете отвечать на сообщения
Вы не можете редактировать свои сообщения
Вы не можете удалять свои сообщения
Вы не можете голосовать в опросах
Вы не можете прикреплять файлы к сообщениям
Вы не можете скачивать файлы