Физрук (1 сезон: 1-20 серий) Год выпуска:2014 г.
Жанр: комедия
Страна: Россия
Режиссер: Сергей Сенцов, Фёдор Стуков
Продолжительность: 07:04:14
Перевод: Не требуется-В ролях:Дмитрий Нагиев (Фома), Александр Гордон (Мамай), Полина Гренц (Саша Мамаева), Анастасия Панина (Татьяна Александровна), Владимир Сычев (Псих), Даниил Вахрушев (Валя Вялых), Андрей Крыжний (Банан), Артур Сопельник (Антон «Борзый»)- --Описание: Это история о столкновении двух времен: «лихих» 90-х и «стабильных» десятых. Главный герой Фома всю жизнь был «правой рукой» влиятельного человека с полукриминальным прошлым. Когда «хозяин» выгнал его на пенсию, Фома решил любым способом вернуться обратно. Сначала казалось, что все будет просто: подобраться к ребенку бывшего босса, прогнуться, напомнить о себе и вернуться в дело. Но план Фомы рушится в первый же день. В школе ему приходится задержаться надолго. Попав в абсолютно незнакомый мир детей и учителей, который кардинально отличается от привычного ему круга, Фома не только меняет свою жизнь, но и меняется сам.-Формат видео: MKV
Качество видео:WEB-DL 720p | 60fps
Видео кодек: AVC
Аудио кодек: AC3
Видео: 1280x720 (16:9), 60.000 fps, AVC, 3 405 Kbps
Аудио: AC3, 192 Kbps, 48.0 KHz, 2 ch-

Отчёт MediaInfo

General
Complete name : 01.Fizruk.mkv
Format : Matroska
File size : 661 MiB
Duration : 25mn 41s
Overall bit rate : 3 600 Kbps
Encoded date : UTC 2015-05-14 17:51:46
Writing application : mkvmerge v6.1.0 ('Old Devil') built on Mar 4 2013 09:10:42
Writing library : libebml v1.3.0 + libmatroska v1.4.0
Video
ID : 1
Format : AVC
Format/Info : Advanced Video Codec
Format profile : High@L4.1
Format settings, CABAC : Yes
Format settings, ReFrames : 9 frames
Format settings, GOP : M=3, N=4
Muxing mode : Container profile=Unknown@4.1
Codec ID : V_MPEG4/ISO/AVC
Duration : 25mn 41s
Bit rate : 3 405 Kbps
Width : 1 280 pixels
Height : 720 pixels
Display aspect ratio : 16:9
Frame rate : 60.000 fps
Color space : YUV
Chroma subsampling : 4:2:0
Bit depth : 8 bits
Scan type : Progressive
Bits/(Pixel*Frame) : 0.062
Stream size : 613 MiB (93%)
Writing library : x264 core 130 r2273 b3065e6
Encoding settings : cabac=1 / ref=9 / deblock=1:-1:-1 / analyse=0x3:0x133 / me=tesa / subme=9 / psy=1 / psy_rd=1.00:0.10 / mixed_ref=1 / me_range=32 / chroma_me=1 / trellis=2 / 8x8dct=1 / cqm=0 / deadzone=21,11 / fast_pskip=0 / chroma_qp_offset=-3 / threads=12 / lookahead_threads=2 / sliced_threads=0 / nr=0 / decimate=1 / interlaced=0 / bluray_compat=0 / constrained_intra=0 / bframes=8 / b_pyramid=2 / b_adapt=2 / b_bias=0 / direct=3 / weightb=1 / open_gop=0 / weightp=2 / keyint=250 / keyint_min=25 / scenecut=40 / intra_refresh=0 / rc_lookahead=50 / rc=2pass / mbtree=1 / bitrate=3405 / ratetol=1.0 / qcomp=0.60 / qpmin=0 / qpmax=69 / qpstep=4 / cplxblur=20.0 / qblur=0.5 / ip_ratio=1.40 / aq=1:1.00
Audio
ID : 2
Format : AC-3
Format/Info : Audio Coding 3
Mode extension : CM (complete main)
Codec ID : A_AC3
Duration : 25mn 41s
Bit rate mode : Constant
Bit rate : 192 Kbps
Channel(s) : 2 channels
Channel positions : Front: L R
Sampling rate : 48.0 KHz
Bit depth : 16 bits
Stream size : 35.3 MiB (5%)

Знаете ли Вы что

· В одной серии герой Артура Сопельника говорит, что уйдет в Кадетское училище. Артур Сопельник исполнял подобную роль в сериале «Кадетство» (2006-2007).
· Исполнителем трека «Да или нет» в 34 серии является Дмитрий Власкин.
· Владимир Жеребцов, сыгравший роль парня Татьяны, в настоящей жизни является мужем Анастасии Паниной.
· Доля «Физрука» в день премьеры составила 31,4 среди телезрителей России в аудитории от 14 до 44 лет. Это лучший старт и абсолютный рекорд в истории ТНТ.
· По данным TNS Россия, 7 апреля в 20:30 премьерная серия «Физрука» по аудитории от 14 до 44 лет прошла с долей 31,8 в Москве. По аудитории от 6 до 54 лет доля чуть ниже, но все равно невероятно высока: показатели в Москве — 22,6, а доля в России — 23,8. Доля в молодежной аудитории от 18 до 30 лет: 41,8 в Москве и 36,0 среди телезрителей России.

[Цитировать]
Fragrance

Оо класс)

[Цитировать]
kamikkadze

2973А где все раздающие ?!
ну я часто появляюсь, остальные скачали свалили)

[Цитировать]
sever76

встаньте на раздачу плиз :)

[Цитировать]
Doke

RAZDAITE PLIZ Плачу

[Цитировать]
Igors

кто нибудь раздавать будет?

[Цитировать]
Павел

Народ организуйте раздачу пожалуйста!!!
 
Показать сообщения:    

Текущее время: 08-Дек 09:01

Часовой пояс: UTC + 3


Вы не можете начинать темы
Вы не можете отвечать на сообщения
Вы не можете редактировать свои сообщения
Вы не можете удалять свои сообщения
Вы не можете голосовать в опросах
Вы не можете прикреплять файлы к сообщениям
Вы не можете скачивать файлы