Britney Spears - Toxic (2004) HDTVRip 1080p | 60 fps Dan Balan - Chica Bomb (2010) WEBRip 1080p | 60 fps Britney Spears - Oops! I Did It Again Uncut (2009) HD 1080p | 60 fps Luis Fonsi - Despacito ft. Daddy Yankee (2017) WEBRip 1080p | 60 fps Bebe Rexha - I Got You (2017) WEBRip 1080p | 60 fps Britney Spears - Lucky (2009) Full HD 1080p | 60 fps Spice Girls - Wannabe (1996) Full HD 1080p | 60 fps Britney Spears - Stronger (2009) Full HD 1080p | 60 fps
  1. Longevity:
    4 years 9 months
    Posts:
    2411
    Gender:
    Male
    -Fergie - London Bridge (2006) Full HD 1080p | 60 fps- -Информация
    Исполнитель: Fergie
    Название: London Bridge
    Год выхода: 2006
    Продолжительность: 00:03:32-Файл
    Кодек: MPEG4/ISO/AVC/H.264/High@L4.2
    Формат: MKV
    Качество: Full HD 1080p | 60 fps
    Видео : 1440 x 1080 (1.333) | 59.940 fps 20.0 Мбит/сек
    Аудио : AC-3 | 384 Кбит/сек | 48.0 KHz | 2.0 ch

    MediaInfo

    Видео
    Идентификатор : 1
    Формат : AVC
    Формат/Информация : Advanced Video Codec
    Профиль формата : High@L4.2
    Параметр CABAC формата : Да
    Параметр ReFrames формата : 3 кадра
    Идентификатор кодека : V_MPEG4/ISO/AVC
    Продолжительность : 3 м. 32 с.
    Вид битрейта : Переменный
    Битрейт : 19,6 Мбит/сек
    Максимальный битрейт : 20,0 Мбит/сек
    Ширина : 1440 пикселей
    Высота : 1080 пикселей
    Соотношение сторон : 4:3
    Режим частоты кадров : Постоянный
    Частота кадров : 59,880 кадров/сек
    Частота кадров в оригинале : 59,940 кадров/сек
    Стандарт вещания : PAL
    Цветовое пространство : YUV
    Субдискретизация насыщенности : 4:2:0
    Битовая глубина : 8 бит
    Тип развёртки : Прогрессивная
    Бит/(Пиксели*Кадры) : 0.211
    Размер потока : 498 Мбайт (96%)
    Заголовок : www.60-fps.org
    Язык : English
    Default : Да
    Forced : Нет
    Основные цвета : BT.709
    Характеристики трансфера : BT.709
    Коэффициенты матрицы : BT.709
    colour_range : Limited
    Аудио
    Идентификатор : 2
    Формат : AC-3
    Формат/Информация : Audio Coding 3
    Расширение режима : CM (complete main)
    Параметр Endianness формата : Big
    Идентификатор кодека : A_AC3
    Продолжительность : 3 м. 32 с.
    Вид битрейта : Постоянный
    Битрейт : 384 Кбит/сек
    Каналы : 2 канала
    Расположение каналов : Front: L R
    Частота : 48,0 КГц
    Битовая глубина : 16 бит
    Метод сжатия : С потерями
    Размер потока : 9,74 Мбайт (2%)
    Default : Да
    Forced : Нет

    Release was prepared by 60 - fps

  2. Longevity:
    2 years 8 months
    Posts:
    99
    Gender:
    Male
    Почему-то Windows Media Player и Media Player Classic Home Cinema проигрывают этот клип в квадратном окне размером 1080х1080.
    Что делать? У всех так? Грущу
    ОС Windows 8.1.
    10-Nov-2016 15:53 (after 17 hours)
  3. Longevity:
    4 years 1 month
    Posts:
    3
    Gender:
    Unknown
    Privet. You can use "KMP" Player. PS: (For Free, no money ) Подмигиваю
    15-Dec-2016 23:55 (after 1 month 5 days)
  4. Longevity:
    2 years 3 months
    Posts:
    1
    Gender:
    Unknown
    thanks
    26-Mar-2017 00:14 (after 3 months 10 days)
  5. Longevity:
    4 years 1 month
    Posts:
    11
    Gender:
    Unknown
    Че раздача то будет?
    27-Oct-2018 22:50 (after 1 year 7 months)


You cannot post new topics in this forum
You cannot reply to topics in this forum
You cannot edit your posts in this forum
You cannot delete your posts in this forum
You cannot vote in polls in this forum
You cannot attach files in this forum
You cannot download files in this forum