Dan Balan - Chica Bomb (2010) WEBRip 1080p | 60 fps Britney Spears - Toxic (2004) HDTVRip 1080p | 60 fps Bebe Rexha - I Got You (2017) WEBRip 1080p | 60 fps Katy Perry - Hey Hey Hey (2017) WEBRip 1080p | 60 fps Britney Spears - Slumber Party ft. Tinashe (2016) Full HD 1080p | 60 fps Luis Fonsi - Despacito ft. Daddy Yankee (2017) WEBRip 1080p | 60 fps Beyonce - Crazy In Love ft. JAY Z (2009) Full HD 1080p | 60 fps Clean Bandit - Rockabye ft. Sean Paul & Anne-Marie (2016) WEBRip 1080p | 60 fps
  1. Стаж:
    4 года 4 месяца
    Сообщений:
    2409
    Пол:
    Мужской
    -Fergie - London Bridge (2006) Full HD 1080p | 60 fps- -Информация
    Исполнитель: Fergie
    Название: London Bridge
    Год выхода: 2006
    Продолжительность: 00:03:32-Файл
    Кодек: MPEG4/ISO/AVC/H.264/High@L4.2
    Формат: MKV
    Качество: Full HD 1080p | 60 fps
    Видео : 1440 x 1080 (1.333) | 59.940 fps 20.0 Мбит/сек
    Аудио : AC-3 | 384 Кбит/сек | 48.0 KHz | 2.0 ch

    MediaInfo

    Видео
    Идентификатор : 1
    Формат : AVC
    Формат/Информация : Advanced Video Codec
    Профиль формата : High@L4.2
    Параметр CABAC формата : Да
    Параметр ReFrames формата : 3 кадра
    Идентификатор кодека : V_MPEG4/ISO/AVC
    Продолжительность : 3 м. 32 с.
    Вид битрейта : Переменный
    Битрейт : 19,6 Мбит/сек
    Максимальный битрейт : 20,0 Мбит/сек
    Ширина : 1440 пикселей
    Высота : 1080 пикселей
    Соотношение сторон : 4:3
    Режим частоты кадров : Постоянный
    Частота кадров : 59,880 кадров/сек
    Частота кадров в оригинале : 59,940 кадров/сек
    Стандарт вещания : PAL
    Цветовое пространство : YUV
    Субдискретизация насыщенности : 4:2:0
    Битовая глубина : 8 бит
    Тип развёртки : Прогрессивная
    Бит/(Пиксели*Кадры) : 0.211
    Размер потока : 498 Мбайт (96%)
    Заголовок : www.60-fps.org
    Язык : English
    Default : Да
    Forced : Нет
    Основные цвета : BT.709
    Характеристики трансфера : BT.709
    Коэффициенты матрицы : BT.709
    colour_range : Limited
    Аудио
    Идентификатор : 2
    Формат : AC-3
    Формат/Информация : Audio Coding 3
    Расширение режима : CM (complete main)
    Параметр Endianness формата : Big
    Идентификатор кодека : A_AC3
    Продолжительность : 3 м. 32 с.
    Вид битрейта : Постоянный
    Битрейт : 384 Кбит/сек
    Каналы : 2 канала
    Расположение каналов : Front: L R
    Частота : 48,0 КГц
    Битовая глубина : 16 бит
    Метод сжатия : С потерями
    Размер потока : 9,74 Мбайт (2%)
    Default : Да
    Forced : Нет

    Релиз подготовлен 60 - fps

  2. Стаж:
    2 года 3 месяца
    Сообщений:
    99
    Пол:
    Мужской
    Почему-то Windows Media Player и Media Player Classic Home Cinema проигрывают этот клип в квадратном окне размером 1080х1080.
    Что делать? У всех так? Грущу
    ОС Windows 8.1.
    10-Ноя-2016 15:53 (спустя 17 часов)
  3. Стаж:
    3 года 8 месяцев
    Сообщений:
    3
    Пол:
    Не указан
    Privet. You can use "KMP" Player. PS: (For Free, no money ) Подмигиваю
    15-Дек-2016 23:55 (спустя 1 месяц 5 дней)
  4. Стаж:
    1 год 10 месяцев
    Сообщений:
    1
    Пол:
    Не указан
    thanks
    26-Мар-2017 00:14 (спустя 3 месяца 10 дней)
  5. Стаж:
    3 года 9 месяцев
    Сообщений:
    11
    Пол:
    Не указан
    Че раздача то будет?
    27-Окт-2018 22:50 (спустя 1 год 7 месяцев)


Вы не можете начинать темы
Вы не можете отвечать на сообщения
Вы не можете редактировать свои сообщения
Вы не можете удалять свои сообщения
Вы не можете голосовать в опросах
Вы не можете прикреплять файлы к сообщениям
Вы не можете скачивать файлы