Philizz - Video Yearmix (2019) Full HD 1080p | 60 fps Madonna - Rebel Heart Tour (2016) Blu-Ray Rip 1080p | 72 fps NK - ELEFANTE (2019) Full HD 1080p | 60 fps Britney Spears - Oops! I Did It Again Uncut (2009) HD 1080p | 60 fps Snoop Dogg - Wet (2011) Full HD 1080p | 60 fps Nicki Minaj - Anaconda (2014) BDRip 1080p | 60 fps IOWA - Бьёт Бит (2015) Full HD 1080p | 60 fps Katy Perry - E.T. ft. Kanye West (2011) WEBRip 1080p | 60 fps
  1. Longevity:
    6 years 7 months
    Posts:
    2414
    Gender:
    Male
    -Fergie - London Bridge (2006) Full HD 1080p | 60 fps- -Информация
    Исполнитель: Fergie
    Название: London Bridge
    Год выхода: 2006
    Продолжительность: 00:03:32-Файл
    Кодек: MPEG4/ISO/AVC/H.264/[email protected]
    Формат: MKV
    Качество: Full HD 1080p | 60 fps
    Видео : 1440 x 1080 (1.333) | 59.940 fps 20.0 Мбит/сек
    Аудио : AC-3 | 384 Кбит/сек | 48.0 KHz | 2.0 ch

    MediaInfo

    Видео
    Идентификатор : 1
    Формат : AVC
    Формат/Информация : Advanced Video Codec
    Профиль формата : [email protected]
    Параметр CABAC формата : Да
    Параметр ReFrames формата : 3 кадра
    Идентификатор кодека : V_MPEG4/ISO/AVC
    Продолжительность : 3 м. 32 с.
    Вид битрейта : Переменный
    Битрейт : 19,6 Мбит/сек
    Максимальный битрейт : 20,0 Мбит/сек
    Ширина : 1440 пикселей
    Высота : 1080 пикселей
    Соотношение сторон : 4:3
    Режим частоты кадров : Постоянный
    Частота кадров : 59,880 кадров/сек
    Частота кадров в оригинале : 59,940 кадров/сек
    Стандарт вещания : PAL
    Цветовое пространство : YUV
    Субдискретизация насыщенности : 4:2:0
    Битовая глубина : 8 бит
    Тип развёртки : Прогрессивная
    Бит/(Пиксели*Кадры) : 0.211
    Размер потока : 498 Мбайт (96%)
    Заголовок : www.60-fps.org
    Язык : English
    Default : Да
    Forced : Нет
    Основные цвета : BT.709
    Характеристики трансфера : BT.709
    Коэффициенты матрицы : BT.709
    colour_range : Limited
    Аудио
    Идентификатор : 2
    Формат : AC-3
    Формат/Информация : Audio Coding 3
    Расширение режима : CM (complete main)
    Параметр Endianness формата : Big
    Идентификатор кодека : A_AC3
    Продолжительность : 3 м. 32 с.
    Вид битрейта : Постоянный
    Битрейт : 384 Кбит/сек
    Каналы : 2 канала
    Расположение каналов : Front: L R
    Частота : 48,0 КГц
    Битовая глубина : 16 бит
    Метод сжатия : С потерями
    Размер потока : 9,74 Мбайт (2%)
    Default : Да
    Forced : Нет

    Release was prepared by 60-fps.org

  2. Longevity:
    4 years 6 months
    Posts:
    110
    Gender:
    Male
    Почему-то Windows Media Player и Media Player Classic Home Cinema проигрывают этот клип в квадратном окне размером 1080х1080.
    Что делать? У всех так? Грущу
    ОС Windows 8.1.
    10-Nov-2016 15:53 (after 17 hours)
  3. Longevity:
    5 years 10 months
    Posts:
    3
    Gender:
    Unknown
    Privet. You can use "KMP" Player. PS: (For Free, no money ) Подмигиваю
    15-Dec-2016 23:55 (after 1 month 5 days)
  4. Longevity:
    4 years 1 month
    Posts:
    1
    Gender:
    Unknown
    thanks
    26-Mar-2017 00:14 (after 3 months 10 days)
  5. Longevity:
    5 years 11 months
    Posts:
    11
    Gender:
    Unknown
    Че раздача то будет?
    27-Oct-2018 22:50 (after 1 year 7 months)
  6. Longevity:
    2 years 10 months
    Posts:
    52
    Gender:
    Male
    Fergie - London Bridge (2006) Full HD 1080p | 60 fps
    Help me Please Download Torrent is not Completed ❗ ❗ ❗ ❗
    22-May-2020 20:34 (after 1 year 6 months)
  7. Longevity:
    2 years 10 months
    Posts:
    52
    Gender:
    Male
    7070Privet. You can use "KMP" Player. PS: (For Free, no money ) Подмигиваю
    Help me Please Download Torrent is not Completed ❗
    22-May-2020 20:48 (after 14 minutes)
  8. Longevity:
    2 years 10 months
    Posts:
    52
    Gender:
    Male
    Cynep, Help me Please Download Torrent is not Completed ❗ ❗ ❗
    22-May-2020 21:32 (after 43 minutes)
  9. Longevity:
    2 years 10 months
    Posts:
    52
    Gender:
    Male
    Alisson andrade ruas, Please Help me Download Torrent is not Completed ❗
    22-May-2020 23:33 (after 2 hours 1 minute)
  10. Longevity:
    2 years 10 months
    Posts:
    52
    Gender:
    Male
    7629thanks
    Please Help Me Download Torrent ist not Completed. Ps:Please ❗❗❗❗
    23-May-2020 02:37 (after 3 hours)
  11. Longevity:
    4 years 3 months
    Posts:
    221
    Gender:
    Male
    11524
    7629thanks
    Please Help Me Download Torrent ist not Completed. Ps:Please ❗❗❗❗
    Качай
    23-May-2020 13:03 (after 10 hours)
  12. Longevity:
    4 years 8 months
    Posts:
    1586
    Gender:
    Male
    Я точно сейчас скачаю и смогу потом раздавать клип 24/7 !
    al752, если у тебя есть ещё какие то клипы,свяжись со мной в личке и обсудим !!!
    24-May-2020 05:08 (after 16 hours)


You cannot post new topics in this forum
You cannot reply to topics in this forum
You cannot edit your posts in this forum
You cannot delete your posts in this forum
You cannot vote in polls in this forum
You cannot attach files in this forum
You cannot download files in this forum