Leah Gotti-Wet Wild And Hot (2017) Full HD 1080p | 60 fps Feeling Every Drop (2018) Ultra HD | 60 fps Club VXN (2018) Full HD 1080p | 60 fps A Rose, A Kiss, and A Bang! (2017) Full HD 1080p | 60 fps Three students learn to fuck together (2017) Full HD 1080p | 60 fps HOT BLACK GIRLS CREAMPIED(2017) Full HD 1080p | 60 fps Sheri Vi Tantalizes Nikolas With Her Oral Skills (2015) HD 1080p | 60 fps BIG ASS CHICKS IN ACTION (2017) Full HD 1080p | 60 fps
  1. Стаж:
    3 года 11 месяцев
    Сообщений:
    2404
    Пол:
    Мужской
    Feeling Every Drop (2018) Ultra HD | 60 fps- Информация
    Название: Feeling Every Drop
    Год выхода: 2018
    Жанр: Gonzo, All Sex
    В ролях: Ariana Marie
    Продолжительность: 00:34:41
    -Файл
    Кодек: AVC-1
    Формат: MP4
    Качество: Ultra HD 2160p | 60 fps
    Видео: 3840 x 2160 (1.778) | 59.940 fps | 20.8 Мбит/сек
    Аудио: AAC | 2.0 | 48.0 kHz | 128 kbps | 16 bit

    MedifInfo

    Видео
    Идентификатор : 1
    Формат : AVC
    Формат/Информация : Advanced Video Codec
    Профиль формата : Baseline@L5.2
    Параметр CABAC формата : Нет
    Параметр ReFrames формата : 1 кадр
    Идентификатор кодека : avc1
    Идентификатор кодека/Информация : Advanced Video Coding
    Продолжительность : 34 м.
    Битрейт : 20,8 Мбит/сек
    Максимальный битрейт : 46,6 Мбит/сек
    Ширина : 3840 пикселей
    Высота : 2160 пикселей
    Соотношение сторон : 16:9
    Режим частоты кадров : Постоянный
    Частота кадров : 59,940 кадров/сек
    Цветовое пространство : YUV
    Субдискретизация насыщенности : 4:2:0
    Битовая глубина : 8 бит
    Тип развёртки : Прогрессивная
    Бит/(Пиксели*Кадры) : 0.042
    Размер потока : 5,03 Гбайт (99%)
    Библиотека кодирования : Zencoder Video Encoding System
    Дата кодирования : UTC 2018-05-03 22:30:09
    Дата пометки : UTC 2018-05-03 23:31:21
    Основные цвета : BT.709
    Характеристики трансфера : BT.709
    Коэффициенты матрицы : BT.709
    colour_range : Limited
    Аудио
    Идентификатор : 2
    Формат : AAC
    Формат/Информация : Advanced Audio Codec
    Профиль формата : LC
    Идентификатор кодека : 40
    Продолжительность : 34 м.
    Вид битрейта : Переменный
    Битрейт : 128 Кбит/сек
    Максимальный битрейт : 142 Кбит/сек
    Каналы : 2 канала
    Расположение каналов : Front: L R
    Частота : 48,0 КГц
    Метод сжатия : С потерями
    Размер потока : 31,7 Мбайт (1%)
    Дата кодирования : UTC 2018-05-03 22:30:08
    Дата пометки : UTC 2018-05-03 23:31:21

    Скриншоты

  2. Стаж:
    2 года
    Сообщений:
    580
    Пол:
    Мужской
    у нас НОВИНКИ не так хорошо качают,как хХх... ! Смеюсь
    14-Май-2018 16:28 (спустя 5 часов)
  3. Стаж:
    2 года 9 месяцев
    Сообщений:
    6
    Пол:
    Мужской
    а пропуск дайте, и тогда не только...
    20-Май-2018 02:03 (спустя 5 дней)
  4. Стаж:
    2 года
    Сообщений:
    580
    Пол:
    Мужской
    9790а пропуск дайте, и тогда не только...
    Так помоему есть подробная инструкция как получить допуск,так что бери... !
    20-Май-2018 04:21 (спустя 2 часа 17 минут)


Вы не можете начинать темы
Вы не можете отвечать на сообщения
Вы не можете редактировать свои сообщения
Вы не можете удалять свои сообщения
Вы не можете голосовать в опросах
Вы не можете прикреплять файлы к сообщениям
Вы не можете скачивать файлы