VIP

  1. Longevity:
    4 years 8 months
    Posts:
    314
    Gender:
    Male
    Заказать фильмы, клипы или любое другое видео в качестве 60fps может каждый!!!
    Стоимость одного видео 50руб. !!!
    Пишите Талямба в личку, всё обсудите...
    Фантомас: Трилогия / Fantomas: Trilogy (1964-1967) BDRip 1080p | 60 fps «Трилогия о Фантомасе» — французская экранизация. Три фильма о Фантомасе режиссёра Андре Юнебеля с Жаном Маре в роли Фантомаса и Фандора, и Луи де Фюнесом в роли комиссара Жюва:
    1. Фантомас (фр. Fantômas) (1964).
    2. Фантомас разбушевался (фр. Fantômas se déchaîne) (1965).
    3. Фантомас против Скотланд-Ярда (фр. Fantômas contre Scotland Yard) (1967).

    В отличие от мрачного первоисточника и первых экранизаций, трилогия снята в комедийном ключе, по сути являясь не частью фантомасиады, а пародией на неё. Также, по ряду признаков, является пародией на набиравшую популярность с начала 1960-х годов серию шпионских приключенческих фильмов о британском суперагенте «007» Джеймсе Бонде (бондиана). В кинопрокате СССР имела большой успех. Действие перенесено во Францию 1960-х годов. Персонажи пользуются различными техническими средствами: автомобиль Фантомаса превращается в реактивный самолёт, его подневольные инженеры изобретают прибор, подавляющий человеческую волю, и тому подобное. Комиссар Жюв выведен как суетливый, туповатый и самовлюблённый неудачник.
    В советском прокате трилогия была дублирована на русский язык и выпускалась на кассетах для кинопроектора. Как свидетельствует Милен Демонжо, исполнительница главной женской роли — журналистки Элен, в своей книге «Моё кино. Одна жизнь и множество фильмов» (Mylène Demongeot: Mémoires de cinéma — Une vie et des films, Paris, Éditions Hors Collection, 2011), после визита съёмочной группы в 1964 году на Московский кинофестиваль планировались съёмки новой серии о Фантомасе: «Фантомас в Москве». «Но проект не состоялся. Де Фюнес хотел заняться чем-то другим, а Жан Маре и слышать об этом не хотел. Ему с избытком хватило роли марионетки и в предыдущих сериях. В довершение ко всему, грим зелёного цвета и резиновые маски Фантомаса вызвали появление прыщей на его лице»… Изначально режиссёр Андрэ Юнебель планировал снять 12 серий кинокомедии о Фантомасе, и на момент начала съёмок первого фильма у него были на руках сценарии как минимум к пяти фильмам.

    Фантомас / Fantomas (1964)

    Фантомас / Fantomas (1964)
    Год выпуска: 1964 г.
    Жанр: Фэнтези, комедия, приключения, криминал
    Страна: Франция, Италия
    Режиссер: Андре Юнебель
    Продолжительность: 01:44:15
    Перевод: Дублированный (Союзмультфильм)
    В ролях: Жан Маре, Луи де Фюнес, Милен Демонжо, Жак Динам, Робер Дальбан, Мари-Элен Арно, Анн-Мари Пейссон, Кристиан Тома, Мишель Дюпле, Андре Таинси
    Описание: Первый фильм трилогии о невероятных приключениях комиссара Жюва, преследующего неуловимого преступника Фантомаса. Париж потрясен сенсационными и дерзкими преступлениями, совершенными таинственным злодеем по имени Фантомас. На его поимку брошены все силы полиции, но Фантомас практически неуловим он все время меняет облик, ловко ускользая из рук правосудия. Напасть на его след удается только комиссару Жюву с помощью Элен, подруги похищенного журналиста Фандора.
    Формат видео: MKV
    Качество видео: BDRip 1080p | 60fps
    Видео кодек: H.264
    Аудио кодек: AC3
    Видео: 1920*816, 25,0 Мбит/сек, 59,940 кадров/сек
    Аудио 1: Русский, AC-3, 2 ch, 192 kbps Дубляж, Союзмультфильм| RUS |
    Аудио 2: Французский, AC-3, 2 ch, 320 kbps Оригинал | FRE |
    Субтитры: Русские, Французские
    Главы: Есть

    Отчёт MediaInfo

    Общее
    Уникальный идентификатор : 180718476339719011541213800025263212680 (0x87F51CCD5E429C53A253101034FC8888)
    Полное имя : D:\Movie\Фантомас - Трилогия\1. Фантомас 1964.mkv
    Формат : Matroska
    Версия формата : Version 2
    Размер файла : 18,6 Гбайт
    Продолжительность : 1 ч. 44 м.
    Общий поток : 25,5 Мбит/сек
    Название фильма : Фантомас / Fantomas (1964)
    Дата кодирования : UTC 2021-09-28 05:38:33
    Программа кодирования : mkvmerge v5.8.0 ('No Sleep / Pillow') built on Sep 2 2012 15:37:04
    Библиотека кодирования : libebml v1.2.3 + libmatroska v1.3.0
    Attachments : Poster.jpg
    Видео
    Идентификатор : 1
    Формат : AVC
    Формат/Информация : Advanced Video Codec
    Профиль формата : [email protected]
    Параметр CABAC формата : Да
    Параметр ReFrames формата : 5 кадров
    Режим смешивания : Header stripping
    Идентификатор кодека : V_MPEG4/ISO/AVC
    Продолжительность : 1 ч. 44 м.
    Битрейт : 25,0 Мбит/сек
    Ширина : 1920 пикселей
    Высота : 816 пикселей
    Соотношение сторон : 2,35:1
    Режим частоты кадров : Постоянный
    Частота кадров : 60,000 кадров/сек
    Цветовое пространство : YUV
    Субдискретизация насыщенности : 4:2:0
    Битовая глубина : 8 бит
    Тип развёртки : Прогрессивная
    Бит/(Пиксели*Кадры) : 0.266
    Размер потока : 17,8 Гбайт (96%)
    Библиотека кодирования : x264 core 146 r2538 121396c
    Настройки программы : cabac=1 / ref=5 / deblock=1:0:0 / analyse=0x3:0x113 / me=umh / subme=8 / psy=1 / psy_rd=1.00:0.25 / mixed_ref=1 / me_range=32 / chroma_me=1 / trellis=1 / 8x8dct=1 / cqm=0 / deadzone=6,6 / fast_pskip=1 / chroma_qp_offset=-4 / threads=12 / lookahead_threads=3 / sliced_threads=0 / nr=0 / decimate=0 / interlaced=0 / bluray_compat=0 / constrained_intra=0 / bframes=3 / b_pyramid=2 / b_adapt=2 / b_bias=0 / direct=3 / weightb=1 / open_gop=0 / weightp=2 / keyint=600 / keyint_min=60 / scenecut=40 / intra_refresh=0 / rc_lookahead=50 / rc=2pass / mbtree=1 / bitrate=25000 / ratetol=1.0 / qcomp=0.80 / qpmin=0 / qpmax=69 / qpstep=4 / cplxblur=20.0 / qblur=0.5 / vbv_maxrate=50000 / vbv_bufsize=50000 / nal_hrd=none / filler=0 / ip_ratio=1.10 / aq=1:0.50
    Язык : English
    Default : Да
    Forced : Нет
    Аудио #1
    Идентификатор : 2
    Формат : AC-3
    Формат/Информация : Audio Coding 3
    Профиль формата : Dolby Digital
    Расширение режима : CM (complete main)
    Параметр Endianness формата : Big
    Режим смешивания : Header stripping
    Идентификатор кодека : A_AC3
    Продолжительность : 1 ч. 44 м.
    Вид битрейта : Постоянный
    Битрейт : 192 Кбит/сек
    Каналы : 2 канала
    Расположение каналов : Front: L R
    Частота : 48,0 КГц
    Частота кадров : 31,250 кадров/сек (1536 spf)
    Битовая глубина : 16 бит
    Метод сжатия : С потерями
    Размер потока : 143 Мбайт (1%)
    Заголовок : Дубляж, Советский
    Язык : Russian
    Default : Да
    Forced : Нет
    Аудио #2
    Идентификатор : 3
    Формат : AC-3
    Формат/Информация : Audio Coding 3
    Расширение режима : CM (complete main)
    Параметр Endianness формата : Big
    Режим смешивания : Header stripping
    Идентификатор кодека : A_AC3
    Продолжительность : 1 ч. 44 м.
    Вид битрейта : Постоянный
    Битрейт : 320 Кбит/сек
    Каналы : 2 канала
    Расположение каналов : Front: L R
    Частота : 48,0 КГц
    Частота кадров : 31,250 кадров/сек (1536 spf)
    Битовая глубина : 16 бит
    Метод сжатия : С потерями
    Размер потока : 239 Мбайт (1%)
    Заголовок : French
    Язык : French
    Default : Нет
    Forced : Нет
    Текст #1
    Идентификатор : 4
    Формат : UTF-8
    Идентификатор кодека : S_TEXT/UTF8
    Идентификатор кодека/Информация : UTF-8 Plain Text
    Заголовок : Russian
    Язык : Russian
    Default : Нет
    Forced : Нет
    Текст #2
    Идентификатор : 5
    Формат : UTF-8
    Идентификатор кодека : S_TEXT/UTF8
    Идентификатор кодека/Информация : UTF-8 Plain Text
    Заголовок : French
    Язык : French
    Default : Нет
    Forced : Нет
    Меню
    00:00:00.000 : :Chapter 01
    00:05:22.832 : :Chapter 02
    00:13:09.915 : :Chapter 03
    00:22:43.583 : :Chapter 04
    00:27:30.083 : :Chapter 05
    00:34:57.458 : :Chapter 06
    00:51:34.541 : :Chapter 07
    00:56:07.666 : :Chapter 08
    01:00:53.833 : :Chapter 09
    01:08:51.000 : :Chapter 10
    01:16:32.832 : :Chapter 11
    01:32:48.082 : :Chapter 12

    Фантомас разбушевался / Fantomas Se Dechaine (1965)

    Фантомас разбушевался / Fantomas Se Dechaine (1965)
    Год выпуска: 1965 г.
    Жанр: Фэнтези, комедия, приключения, криминал
    Страна: Франция, Италия
    Режиссер: Андре Юнебель
    Продолжительность: 01:38:49
    Перевод: Дублированный (Союзмультфильм)
    В ролях: Жан Маре, Луи де Фюнес, Милен Демонжо, Жак Динам, Робер Дальбан, Альбер Даньян, Кристиан Тома, Мишель Дюпле, Оливье Де Фюнес, Флоранс Бло
    Описание: Второй фильм трилогии о таинственном преступнике, которая имела фантастическую популярность в СССР и до сих пор является визитной карточкой французской комедии. Спустя год после того, как комиссар Жюв и репортер Фандор упустили Фантомаса, суперпреступник вновь дал о себе знать, похитив известного ученого. Следующей жертвой должен стать его помощник, профессор Лефевр. Фандор, выдавая себя за профессора, едет в Рим и... попадает прямо в руки Фантомаса. Спеша на выручку, Жюв и Элен сами попадают в ловушку. Теперь приходится думать, как спасаться самим и сбежать из логова Фантомаса.
    Формат видео: MKV
    Качество видео: BDRip 1080p | 60fps
    Видео кодек: H.264
    Аудио кодек: AC3
    Видео: 1920*816, 25,0 Мбит/сек, 59,940 кадров/сек
    Аудио 1: Русский, AC-3, 2 ch, 192 kbps Дубляж, Союзмультфильм | RUS |
    Аудио 2: Французский, AC-3, 2 ch, 320 kbps Оригинал | FRE |
    Субтитры: Русские, Французские
    Главы: Есть

    Отчёт MediaInfo

    Общее
    Уникальный идентификатор : 179056746289836679141141405266614982418 (0x86B5132F6D132B71A34653DE16689712)
    Полное имя : D:\Movie\Фантомас - Трилогия\2. Фантомас разбушевался 1965.mkv
    Формат : Matroska
    Версия формата : Version 2
    Размер файла : 17,6 Гбайт
    Продолжительность : 1 ч. 38 м.
    Общий поток : 25,5 Мбит/сек
    Название фильма : Фантомас разбушевался / Fantomas se dechaine (1965)
    Дата кодирования : UTC 2021-09-28 16:01:40
    Программа кодирования : mkvmerge v5.8.0 ('No Sleep / Pillow') built on Sep 2 2012 15:37:04
    Библиотека кодирования : libebml v1.2.3 + libmatroska v1.3.0
    Attachments : Poster.jpg
    Видео
    Идентификатор : 1
    Формат : AVC
    Формат/Информация : Advanced Video Codec
    Профиль формата : [email protected]
    Параметр CABAC формата : Да
    Параметр ReFrames формата : 5 кадров
    Режим смешивания : Header stripping
    Идентификатор кодека : V_MPEG4/ISO/AVC
    Продолжительность : 1 ч. 38 м.
    Битрейт : 25,0 Мбит/сек
    Ширина : 1920 пикселей
    Высота : 816 пикселей
    Соотношение сторон : 2,35:1
    Режим частоты кадров : Постоянный
    Частота кадров : 60,000 кадров/сек
    Цветовое пространство : YUV
    Субдискретизация насыщенности : 4:2:0
    Битовая глубина : 8 бит
    Тип развёртки : Прогрессивная
    Бит/(Пиксели*Кадры) : 0.266
    Размер потока : 16,9 Гбайт (96%)
    Библиотека кодирования : x264 core 146 r2538 121396c
    Настройки программы : cabac=1 / ref=5 / deblock=1:0:0 / analyse=0x3:0x113 / me=umh / subme=8 / psy=1 / psy_rd=1.00:0.25 / mixed_ref=1 / me_range=32 / chroma_me=1 / trellis=1 / 8x8dct=1 / cqm=0 / deadzone=6,6 / fast_pskip=1 / chroma_qp_offset=-4 / threads=12 / lookahead_threads=3 / sliced_threads=0 / nr=0 / decimate=0 / interlaced=0 / bluray_compat=0 / constrained_intra=0 / bframes=3 / b_pyramid=2 / b_adapt=2 / b_bias=0 / direct=3 / weightb=1 / open_gop=0 / weightp=2 / keyint=600 / keyint_min=60 / scenecut=40 / intra_refresh=0 / rc_lookahead=50 / rc=2pass / mbtree=1 / bitrate=25000 / ratetol=1.0 / qcomp=0.80 / qpmin=0 / qpmax=69 / qpstep=4 / cplxblur=20.0 / qblur=0.5 / vbv_maxrate=50000 / vbv_bufsize=50000 / nal_hrd=none / filler=0 / ip_ratio=1.10 / aq=1:0.50
    Язык : English
    Default : Да
    Forced : Нет
    Аудио #1
    Идентификатор : 2
    Формат : AC-3
    Формат/Информация : Audio Coding 3
    Профиль формата : Dolby Digital
    Расширение режима : CM (complete main)
    Параметр Endianness формата : Big
    Режим смешивания : Header stripping
    Идентификатор кодека : A_AC3
    Продолжительность : 1 ч. 38 м.
    Вид битрейта : Постоянный
    Битрейт : 192 Кбит/сек
    Каналы : 2 канала
    Расположение каналов : Front: L R
    Частота : 48,0 КГц
    Частота кадров : 31,250 кадров/сек (1536 spf)
    Битовая глубина : 16 бит
    Метод сжатия : С потерями
    Размер потока : 136 Мбайт (1%)
    Заголовок : Дубляж, Советский
    Язык : Russian
    Default : Да
    Forced : Нет
    Аудио #2
    Идентификатор : 3
    Формат : AC-3
    Формат/Информация : Audio Coding 3
    Расширение режима : CM (complete main)
    Параметр Endianness формата : Big
    Режим смешивания : Header stripping
    Идентификатор кодека : A_AC3
    Продолжительность : 1 ч. 38 м.
    Вид битрейта : Постоянный
    Битрейт : 320 Кбит/сек
    Каналы : 2 канала
    Расположение каналов : Front: L R
    Частота : 48,0 КГц
    Частота кадров : 31,250 кадров/сек (1536 spf)
    Битовая глубина : 16 бит
    Метод сжатия : С потерями
    Размер потока : 226 Мбайт (1%)
    Заголовок : French
    Язык : French
    Default : Нет
    Forced : Нет
    Текст #1
    Идентификатор : 4
    Формат : UTF-8
    Идентификатор кодека : S_TEXT/UTF8
    Идентификатор кодека/Информация : UTF-8 Plain Text
    Заголовок : Russian
    Язык : Russian
    Default : Нет
    Forced : Нет
    Текст #2
    Идентификатор : 5
    Формат : ASS
    Идентификатор кодека : S_TEXT/ASS
    Идентификатор кодека/Информация : Advanced Sub Station Alpha
    Метод сжатия : Без потерь
    Заголовок : French
    Язык : French
    Default : Нет
    Forced : Нет
    Меню
    00:00:00.000 : :Chapter 01
    00:05:16.000 : :Chapter 02
    00:09:08.916 : :Chapter 03
    00:17:37.333 : :Chapter 04
    00:23:38.208 : :Chapter 05
    00:37:06.166 : :Chapter 06
    00:46:56.333 : :Chapter 07
    00:56:40.041 : :Chapter 08
    00:59:41.125 : :Chapter 09
    01:05:19.000 : :Chapter 10
    01:12:54.500 : :Chapter 11
    01:28:14.666 : :Chapter 12

    Фантомас против Скотланд-Ярда / Fantomas Contre Scotland Yard (1967)

    Фантомас против Скотланд-Ярда / Fantomas Contre Scotland Yard (1967)
    Год выпуска: 1967 г.
    Жанр: Фэнтези, комедия, приключения, криминал
    Страна: Франция, Италия
    Режиссер: Андре Юнебель
    Продолжительность: 01:40:58
    Перевод: Дублированный (Союзмультфильм)
    В ролях:Жан Маре, Луи де Фюнес, Милен Демонжо, Жак Динам, Франсуаза Кристоф, Жан-Роже Коссимон, Робер Дальбан, Андре Дюма, Макс Монтавон, Рита Ренуар, Жан Озенн
    Описание: На этот раз злодей с тысячью лицами решает обложить данью богатейших людей мира, а взамен гарантирует им жизнь. Комиссар Жюв со своими верными друзьями, Фандором и Элен, прибывает в шотландский замок для того, чтобы встать на защиту его владельца и снова попытаться поймать Фантомаса.
    Формат видео: MKV
    Качество видео: BDRip 1080p | 60fps
    Видео кодек: H.264
    Аудио кодек: AC3
    Видео: 1920*816, 25,0 Мбит/сек, 59,940 кадров/сек
    Аудио 1: Русский, AC-3, 2 ch, 192 kbps Дубляж, Союзмультфильм | RUS |
    Аудио 2: Французский, AC-3, 2 ch, 320 kbps Оригинал | FRE |
    Субтитры: Русские, Французские
    Главы: Есть

    Отчёт MediaInfo

    Общее
    Уникальный идентификатор : 227471732430690666836370613327023281138 (0xAB21764C1E951DDD8767F97DEB0F93F2)
    Полное имя : D:\Movie\Фантомас - Трилогия\3. Фантомас против Скотланд-Ярда 1967.mkv
    Формат : Matroska
    Версия формата : Version 2
    Размер файла : 18,0 Гбайт
    Продолжительность : 1 ч. 40 м.
    Общий поток : 25,5 Мбит/сек
    Название фильма : Фантомас против Скотланд-Ярда / Fantomas contre Scotland Yard (1967)
    Дата кодирования : UTC 2021-09-29 04:46:25
    Программа кодирования : mkvmerge v5.8.0 ('No Sleep / Pillow') built on Sep 2 2012 15:37:04
    Библиотека кодирования : libebml v1.2.3 + libmatroska v1.3.0
    Attachments : Poster.jpg
    Видео
    Идентификатор : 1
    Формат : AVC
    Формат/Информация : Advanced Video Codec
    Профиль формата : [email protected]
    Параметр CABAC формата : Да
    Параметр ReFrames формата : 5 кадров
    Режим смешивания : Header stripping
    Идентификатор кодека : V_MPEG4/ISO/AVC
    Продолжительность : 1 ч. 40 м.
    Битрейт : 25,0 Мбит/сек
    Ширина : 1920 пикселей
    Высота : 816 пикселей
    Соотношение сторон : 2,35:1
    Режим частоты кадров : Постоянный
    Частота кадров : 60,000 кадров/сек
    Цветовое пространство : YUV
    Субдискретизация насыщенности : 4:2:0
    Битовая глубина : 8 бит
    Тип развёртки : Прогрессивная
    Бит/(Пиксели*Кадры) : 0.266
    Размер потока : 17,2 Гбайт (96%)
    Библиотека кодирования : x264 core 146 r2538 121396c
    Настройки программы : cabac=1 / ref=5 / deblock=1:0:0 / analyse=0x3:0x113 / me=umh / subme=8 / psy=1 / psy_rd=1.00:0.25 / mixed_ref=1 / me_range=32 / chroma_me=1 / trellis=1 / 8x8dct=1 / cqm=0 / deadzone=6,6 / fast_pskip=1 / chroma_qp_offset=-4 / threads=12 / lookahead_threads=3 / sliced_threads=0 / nr=0 / decimate=0 / interlaced=0 / bluray_compat=0 / constrained_intra=0 / bframes=3 / b_pyramid=2 / b_adapt=2 / b_bias=0 / direct=3 / weightb=1 / open_gop=0 / weightp=2 / keyint=600 / keyint_min=60 / scenecut=40 / intra_refresh=0 / rc_lookahead=50 / rc=2pass / mbtree=1 / bitrate=25000 / ratetol=1.0 / qcomp=0.80 / qpmin=0 / qpmax=69 / qpstep=4 / cplxblur=20.0 / qblur=0.5 / vbv_maxrate=50000 / vbv_bufsize=50000 / nal_hrd=none / filler=0 / ip_ratio=1.10 / aq=1:0.50
    Язык : English
    Default : Да
    Forced : Нет
    Аудио #1
    Идентификатор : 2
    Формат : AC-3
    Формат/Информация : Audio Coding 3
    Профиль формата : Dolby Digital
    Расширение режима : CM (complete main)
    Параметр Endianness формата : Big
    Режим смешивания : Header stripping
    Идентификатор кодека : A_AC3
    Продолжительность : 1 ч. 40 м.
    Вид битрейта : Постоянный
    Битрейт : 192 Кбит/сек
    Каналы : 2 канала
    Расположение каналов : Front: L R
    Частота : 48,0 КГц
    Частота кадров : 31,250 кадров/сек (1536 spf)
    Битовая глубина : 16 бит
    Метод сжатия : С потерями
    Размер потока : 139 Мбайт (1%)
    Заголовок : Дубляж, Советский
    Язык : Russian
    Default : Да
    Forced : Нет
    Аудио #2
    Идентификатор : 3
    Формат : AC-3
    Формат/Информация : Audio Coding 3
    Расширение режима : CM (complete main)
    Параметр Endianness формата : Big
    Режим смешивания : Header stripping
    Идентификатор кодека : A_AC3
    Продолжительность : 1 ч. 40 м.
    Вид битрейта : Постоянный
    Битрейт : 320 Кбит/сек
    Каналы : 2 канала
    Расположение каналов : Front: L R
    Частота : 48,0 КГц
    Частота кадров : 31,250 кадров/сек (1536 spf)
    Битовая глубина : 16 бит
    Метод сжатия : С потерями
    Размер потока : 231 Мбайт (1%)
    Заголовок : French
    Язык : French
    Default : Нет
    Forced : Нет
    Текст #1
    Идентификатор : 4
    Формат : UTF-8
    Идентификатор кодека : S_TEXT/UTF8
    Идентификатор кодека/Информация : UTF-8 Plain Text
    Заголовок : Russian
    Язык : Russian
    Default : Нет
    Forced : Нет
    Текст #2
    Идентификатор : 5
    Формат : ASS
    Идентификатор кодека : S_TEXT/ASS
    Идентификатор кодека/Информация : Advanced Sub Station Alpha
    Метод сжатия : Без потерь
    Заголовок : French
    Язык : French
    Default : Нет
    Forced : Нет
    Меню
    00:00:00.000 : :Chapter 01
    00:11:23.500 : :Chapter 02
    00:16:56.041 : :Chapter 03
    00:29:00.333 : :Chapter 04
    00:35:15.916 : :Chapter 05
    00:39:28.583 : :Chapter 06
    00:54:27.375 : :Chapter 07
    00:59:35.666 : :Chapter 08
    01:07:05.250 : :Chapter 09
    01:16:17.416 : :Chapter 10
    01:27:17.916 : :Chapter 11
    01:34:14.458 : :Chapter 12

    Release was prepared by 60-fps.org



You cannot post new topics in this forum
You cannot reply to topics in this forum
You cannot edit your posts in this forum
You cannot delete your posts in this forum
You cannot vote in polls in this forum
You cannot attach files in this forum
You cannot download files in this forum