Трилогия Андрэ ЮнебеляТри фильма о Фантомасе режиссёра Андре Юнебеля с Жаном Маре в роли Фантомаса и Фандора, Луи де Фюнесом в роли комиссара Жюва. В отличие от мрачного оригинала, трилогия снята в комедийном стиле, по сути являясь не частью фантомасиады, а пародией на неё и на бондиану. В кинопрокате СССР имела большой успех. Действие перенесено во Францию 1960-х годов. Кроме этого, персонажи пользуются различными гаджетами и техницизмами-трансформерами. Например, «запорожец» Фантомаса, превращающийся в самолёт.--Фантомас (фр. Fantômas) (1964)
Фантомас разбушевался (фр. Fantômas se déchaîne) (1965)
Фантомас против Скотланд-Ярда (фр. Fantômas contre Scotland Yard) (1967)--Как свидетельствует Милен Демонжо, исполнительница главной женской роли — журналистки Элен — в своей книге «Моё кино. Одна жизнь и множество фильмов» (Mylène Demongeot: Mémoires de cinéma — Une vie et des films, Paris, Éditions Hors Collection, 2011) после визита съёмочной группы в 1964 году на Московский кинофестиваль планировались съемки новой серии о Фантомасе: «Фантомас в Москве». «Но проект не состоялся. Де Фюнес хотел заняться чем-то другим, а Жан Маре и слышать об этом не хотел. Ему с избытком хватило роли марионетки и в предыдущих сериях. В довершение ко всему, макияж зеленого цвета и резиновые маски Фантомаса вызвали появление прыщей на его лице»…--

Фантомас

Фантомас / Fantomas
-Год выпуска: 1964
Страна: Франция, Италия
Жанр: комедия, криминал, приключения
Продолжительность: 01:44:16
Перевод: Дубляж
Субтитры: русские (Полные)-Режиссер: Андре Юнебель / Andre Hunebelle-В ролях: Жан Маре (Fantomas / Fandor), Луи де Фюнес (Commissaire Juve), Милен Демонжо (Helene), Жак Динам (Inspecteur Bertrand), Робер Дальбан (Le directeur du journal), Мари-Элен Арно (Lady Beltham), Анн-Мари Пейссон (La speakerine), Кристиан Тома (Un inspecteur), Мишель Дюпле (Un inspecteur), Андре Таинси (L'habilleuse), Хьюс Уоннер, Анри Атталь (Un garde du corps / Bodyguard)-Описание:
Первый фильм трилогии о невероятных приключениях комиссара Жюва, преследующего неуловимого преступника Фантомаса. Париж потрясен сенсационными и дерзкими преступлениями, совершенными таинственным злодеем по имени Фантомас. На его поимку брошены все силы полиции, но Фантомас практически неуловим - он все время меняет облик, ловко ускользая из рук правосудия. Напасть на его след удается только комиссару Жюву с помощью Элен, подруги похищенного журналиста Фандора.- --Качество: BDRip-AVC 60fps
Формат: MKV
Видео кодек: AVC
Аудио кодек:AC3
Видео: AVC, 1024x432 (2.35:1), 4000 kbps, 59,997 fps, 0,151 bpp
Аудио: русский / AC3 / 2.0 / 48 kHz / 192 kbps / 16 bit |Дубляж|
Навигация по главам: есть-Релиз by: -

MI

General
Unique ID : 241059772185051361966360687223875940542 (0xB55A6C61928416919B969030CC1DB0BE)
Complete name : B:\Фантомас BDRip-AVC 60fps\Фантомас 1.mkv
Format : Matroska
Format version : Version 4 / Version 2
File size : 3.06 GiB
Duration : 1h 44mn
Overall bit rate : 4 197 Kbps
Movie name : R.G HD-FIlms by Tiberiumsun69
Encoded date : UTC 2015-05-24 03:53:58
Writing application : mkvmerge v7.9.0 ('Birds') 64bit
Writing library : libebml v1.3.1 + libmatroska v1.4.2
Attachment : Yes
Video
ID : 1
Format : AVC
Format/Info : Advanced Video Codec
Format profile : High@L4.1
Format settings, CABAC : Yes
Format settings, ReFrames : 4 frames
Codec ID : V_MPEG4/ISO/AVC
Duration : 1h 44mn
Bit rate : 4 000 Kbps
Width : 1 024 pixels
Height : 432 pixels
Display aspect ratio : 2.35:1
Frame rate : 59.997 fps
Color space : YUV
Chroma subsampling : 4:2:0
Bit depth : 8 bits
Scan type : Progressive
Bits/(Pixel*Frame) : 0.151
Stream size : 2.86 GiB (93%)
Title : R.G HD-Films by Tiberiumsun69
Writing library : x264 core 146 r2538 121396c
Encoding settings : cabac=1 / ref=4 / deblock=1:0:0 / analyse=0x3:0x113 / me=umh / subme=11 / psy=1 / psy_rd=1.00:0.10 / mixed_ref=1 / me_range=32 / chroma_me=1 / trellis=2 / 8x8dct=1 / cqm=0 / deadzone=21,11 / fast_pskip=0 / chroma_qp_offset=-3 / threads=12 / lookahead_threads=1 / sliced_threads=0 / nr=0 / decimate=1 / interlaced=0 / bluray_compat=0 / constrained_intra=0 / bframes=3 / b_pyramid=2 / b_adapt=2 / b_bias=0 / direct=3 / weightb=1 / open_gop=0 / weightp=2 / keyint=600 / keyint_min=59 / scenecut=40 / intra_refresh=0 / rc_lookahead=60 / rc=2pass / mbtree=1 / bitrate=4000 / ratetol=1.0 / qcomp=0.60 / qpmin=0 / qpmax=69 / qpstep=4 / cplxblur=20.0 / qblur=0.5 / vbv_maxrate=50000 / vbv_bufsize=62500 / nal_hrd=none / filler=0 / ip_ratio=1.40 / aq=1:1.00
Language : English
Default : Yes
Forced : No
Audio
ID : 2
Format : AC-3
Format/Info : Audio Coding 3
Format profile : Dolby Digital
Mode extension : CM (complete main)
Codec ID : A_AC3
Duration : 1h 44mn
Bit rate mode : Constant
Bit rate : 192 Kbps
Channel(s) : 2 channels
Channel positions : Front: L R
Sampling rate : 48.0 KHz
Bit depth : 16 bits
Compression mode : Lossy
Stream size : 143 MiB (5%)
Title : Дубляж
Language : Russian
Default : Yes
Forced : No
Text
ID : 3
Format : UTF-8
Codec ID : S_TEXT/UTF8
Codec ID/Info : UTF-8 Plain Text
Title : Полные
Language : Russian
Default : No
Forced : No
Menu
00:00:00.000 : en:00:00:00.000
00:05:22.833 : en:00:05:22.833
00:13:09.916 : en:00:13:09.916
00:22:43.583 : en:00:22:43.583
00:27:30.083 : en:00:27:30.083
00:34:57.458 : en:00:34:57.458
00:51:34.541 : en:00:51:34.541
00:56:07.666 : en:00:56:07.666
01:00:53.833 : en:01:00:53.833
01:08:51.000 : en:01:08:51.000
01:16:32.833 : en:01:16:32.833
01:32:48.083 : en:01:32:48.083

Фантомас разбушевался

Фантомас разбушевался / Fantomas se dechaine
-Год выпуска: 1965
Страна: Франция, Италия
Жанр: комедия, криминал, приключения
Продолжительность: 01:38:49
Перевод: Дубляж
Субтитры: русские (Полные)-Режиссер: Андре Юнебель / Andre Hunebelle-В ролях: Жан Маре (Fantomas / Fandor / Professeur Lefevre), Луи де Фюнес (Commissaire Juve), Милен Демонжо (Helene), Жак Динам (Bertrand), Робер Дальбан (Le redacteur du «Point du Jour»), Альбер Даньян (Professeur Marchard), Кристиан Тома (Inspecteur), Мишель Дюпле (Un inspecteur), Оливье Де Фюнес (Michou), Флоранс Бло (La dame), Робер Ле Беаль (Le ministre), Пьетро Торди (Le president de l'Assemblee)-Описание:
Спустя год после того, как комиссар Жюв и репортер Фандор упустили Фантомаса, суперпреступник вновь дал о себе знать, похитив известного ученого. Следующей жертвой должен стать его помощник, профессор Лефевр. Фандор, выдавая себя за профессора, едет в Рим и... попадает прямо в руки Фантомаса. Спеша на выручку, Жюв и Элен сами попадают в ловушку. Теперь приходится думать, как спасаться самим и сбежать из логова Фантомаса.- -Качество: BDRip-AVC 60fps
Формат: MKV
Видео кодек: AVC
Аудио кодек:AC3
Видео: AVC, 1024x432 (2.35:1), 4000 kbps, 59,997 fps, 0,151 bpp
Аудио: русский / AC3 / 2.0 / 48 kHz / 192 kbps / 16 bit |Дубляж|
Навигация по главам: есть-Релиз by: -

MI

General
Unique ID : 236881168212074340166107753723349159045 (0xB235A74C91C470AEAB5E95BFA4CBCC85)
Complete name : B:\Фантомас BDRip-AVC 60fps\Фантомас 2 Разбушевался.mkv
Format : Matroska
Format version : Version 4 / Version 2
File size : 2.90 GiB
Duration : 1h 38mn
Overall bit rate : 4 197 Kbps
Movie name : R.G HD-FIlms by Tiberiumsun69
Encoded date : UTC 2015-05-24 03:50:46
Writing application : mkvmerge v7.9.0 ('Birds') 64bit
Writing library : libebml v1.3.1 + libmatroska v1.4.2
Attachment : Yes
Video
ID : 1
Format : AVC
Format/Info : Advanced Video Codec
Format profile : High@L4.1
Format settings, CABAC : Yes
Format settings, ReFrames : 4 frames
Codec ID : V_MPEG4/ISO/AVC
Duration : 1h 38mn
Bit rate : 4 000 Kbps
Width : 1 024 pixels
Height : 432 pixels
Display aspect ratio : 2.35:1
Frame rate : 59.997 fps
Color space : YUV
Chroma subsampling : 4:2:0
Bit depth : 8 bits
Scan type : Progressive
Bits/(Pixel*Frame) : 0.151
Stream size : 2.71 GiB (93%)
Title : R.G HD-Films by Tiberiumsun69
Writing library : x264 core 146 r2538 121396c
Encoding settings : cabac=1 / ref=4 / deblock=1:0:0 / analyse=0x3:0x113 / me=umh / subme=11 / psy=1 / psy_rd=1.00:0.10 / mixed_ref=1 / me_range=32 / chroma_me=1 / trellis=2 / 8x8dct=1 / cqm=0 / deadzone=21,11 / fast_pskip=0 / chroma_qp_offset=-3 / threads=12 / lookahead_threads=1 / sliced_threads=0 / nr=0 / decimate=1 / interlaced=0 / bluray_compat=0 / constrained_intra=0 / bframes=3 / b_pyramid=2 / b_adapt=2 / b_bias=0 / direct=3 / weightb=1 / open_gop=0 / weightp=2 / keyint=600 / keyint_min=59 / scenecut=40 / intra_refresh=0 / rc_lookahead=60 / rc=2pass / mbtree=1 / bitrate=4000 / ratetol=1.0 / qcomp=0.60 / qpmin=0 / qpmax=69 / qpstep=4 / cplxblur=20.0 / qblur=0.5 / vbv_maxrate=50000 / vbv_bufsize=62500 / nal_hrd=none / filler=0 / ip_ratio=1.40 / aq=1:1.00
Language : English
Default : Yes
Forced : No
Audio
ID : 2
Format : AC-3
Format/Info : Audio Coding 3
Format profile : Dolby Digital
Mode extension : CM (complete main)
Codec ID : A_AC3
Duration : 1h 38mn
Bit rate mode : Constant
Bit rate : 192 Kbps
Channel(s) : 2 channels
Channel positions : Front: L R
Sampling rate : 48.0 KHz
Bit depth : 16 bits
Compression mode : Lossy
Stream size : 136 MiB (5%)
Title : Дубляж
Language : Russian
Default : Yes
Forced : No
Text
ID : 3
Format : UTF-8
Codec ID : S_TEXT/UTF8
Codec ID/Info : UTF-8 Plain Text
Title : Полные
Language : Russian
Default : No
Forced : No
Menu
00:00:00.000 : en:Chapter 1
00:05:16.000 : en:Chapter 2
00:09:08.916 : en:Chapter 3
00:17:37.333 : en:Chapter 4
00:23:38.208 : en:Chapter 5
00:37:06.166 : en:Chapter 6
00:46:56.333 : en:Chapter 7
00:56:40.041 : en:Chapter 8
00:59:41.125 : en:Chapter 9
01:05:19.000 : en:Chapter 10
01:12:54.500 : en:Chapter 11
01:28:14.666 : en:Chapter 12

Фантомас против Скотланд-Ярда

Фантомас против Скотланд-Ярда / Fantomas contre Scotland Yard
-Год выпуска: 1966
Страна: Франция, Италия
Жанр: комедия, криминал, приключения
Продолжительность: 01:40:59
Перевод: Дубляж
Субтитры: русские (Полные)-Режиссер: Андре Юнебель / Andre Hunebelle-В ролях: Жан Маре (Fantomas / Fandor), Луи де Фюнес (Le commissaire Juve), Милен Демонжо (Helene), Франсуаза Кристоф (Lady Dorothy MacRashley), Жан-Роже Коссимон (Fantomas), Робер Дальбан (Le directeur du journal), Андре Дюма (Tom Smith), Макс Монтавон (Alexandre), Рита Ренуар (La vedette qui descend d'avion), Жан Озенн (Albert), Анри Серр (Andre Berthier), Жак Динам (Bertrand)-Описание:
На этот раз злодей с тысячью лицами решает обложить данью богатейших людей мира, а взамен гарантирует им жизнь. Комиссар Жюв со своими верными друзьями, Фандором и Элен, прибывает в шотландский замок для того, чтобы встать на защиту его владельца и снова попытаться поймать Фантомаса.- -Качество: BDRip-AVC 60fps
Формат: MKV
Видео кодек: AVC
Аудио кодек:AC3
Видео: AVC, 1024x432 (2.35:1), 4000 kbps, 59,997 fps, 0,151 bpp
Аудио: русский / AC3 / 2.0 / 48 kHz / 192 kbps / 16 bit |Дубляж|
Навигация по главам: есть-Релиз by: -

MI

General
Unique ID : 194540386010039203120931815452000949710 (0x925B1D9028A6AEFB835072568B7C95CE)
Complete name : B:\Фантомас BDRip-AVC 60fps\Фантомас 3 Против Скотланд ярда.mkv
Format : Matroska
Format version : Version 4 / Version 2
File size : 2.96 GiB
Duration : 1h 40mn
Overall bit rate : 4 197 Kbps
Movie name : R.G HD-Films by Tiberiumsun69
Encoded date : UTC 2015-05-24 04:06:32
Writing application : mkvmerge v7.9.0 ('Birds') 64bit
Writing library : libebml v1.3.1 + libmatroska v1.4.2
Attachment : Yes
Video
ID : 1
Format : AVC
Format/Info : Advanced Video Codec
Format profile : High@L4.1
Format settings, CABAC : Yes
Format settings, ReFrames : 4 frames
Codec ID : V_MPEG4/ISO/AVC
Duration : 1h 40mn
Bit rate : 4 000 Kbps
Width : 1 024 pixels
Height : 432 pixels
Display aspect ratio : 2.35:1
Frame rate : 59.997 fps
Color space : YUV
Chroma subsampling : 4:2:0
Bit depth : 8 bits
Scan type : Progressive
Bits/(Pixel*Frame) : 0.151
Stream size : 2.77 GiB (93%)
Title : R.G HD-Films by Tiberiumsun69
Writing library : x264 core 146 r2538 121396c
Encoding settings : cabac=1 / ref=4 / deblock=1:0:0 / analyse=0x3:0x113 / me=umh / subme=11 / psy=1 / psy_rd=1.00:0.10 / mixed_ref=1 / me_range=32 / chroma_me=1 / trellis=2 / 8x8dct=1 / cqm=0 / deadzone=21,11 / fast_pskip=0 / chroma_qp_offset=-3 / threads=12 / lookahead_threads=1 / sliced_threads=0 / nr=0 / decimate=1 / interlaced=0 / bluray_compat=0 / constrained_intra=0 / bframes=3 / b_pyramid=2 / b_adapt=2 / b_bias=0 / direct=3 / weightb=1 / open_gop=0 / weightp=2 / keyint=600 / keyint_min=59 / scenecut=40 / intra_refresh=0 / rc_lookahead=60 / rc=2pass / mbtree=1 / bitrate=4000 / ratetol=1.0 / qcomp=0.60 / qpmin=0 / qpmax=69 / qpstep=4 / cplxblur=20.0 / qblur=0.5 / vbv_maxrate=50000 / vbv_bufsize=62500 / nal_hrd=none / filler=0 / ip_ratio=1.40 / aq=1:1.00
Language : English
Default : Yes
Forced : No
Audio
ID : 2
Format : AC-3
Format/Info : Audio Coding 3
Format profile : Dolby Digital
Mode extension : CM (complete main)
Codec ID : A_AC3
Duration : 1h 40mn
Bit rate mode : Constant
Bit rate : 192 Kbps
Channel(s) : 2 channels
Channel positions : Front: L R
Sampling rate : 48.0 KHz
Bit depth : 16 bits
Compression mode : Lossy
Stream size : 139 MiB (5%)
Title : Дубляж
Language : Russian
Default : Yes
Forced : No
Text
ID : 3
Format : UTF-8
Codec ID : S_TEXT/UTF8
Codec ID/Info : UTF-8 Plain Text
Title : Полные
Language : Russian
Default : No
Forced : No
Menu
00:00:00.000 : en:Chapter 1
00:11:23.500 : en:Chapter 2
00:16:56.041 : en:Chapter 3
00:29:00.333 : en:Chapter 4
00:35:15.916 : en:Chapter 5
00:39:28.583 : en:Chapter 6
00:54:27.375 : en:Chapter 7
00:59:35.666 : en:Chapter 8
01:07:05.250 : en:Chapter 9
01:16:17.416 : en:Chapter 10
01:27:17.916 : en:Chapter 11
01:34:14.458 : en:Chapter 12

[Цитировать]
vitamin2907

Спасибо за Фантомаса!!! Замечательный фильм, отличная игра актеров, за Луи отдельное спасибо!!) Вот бы "жандармов" всех в 60 fps!!!

[Цитировать]
Mouse1987

Будьте добры, станьте кто то на раздачу Краснею
 
Показать сообщения:    

Текущее время: 21-Сен 15:31

Часовой пояс: UTC + 3


Вы не можете начинать темы
Вы не можете отвечать на сообщения
Вы не можете редактировать свои сообщения
Вы не можете удалять свои сообщения
Вы не можете голосовать в опросах
Вы не можете прикреплять файлы к сообщениям
Вы не можете скачивать файлы