VIP

Интерстеллар / Interstellar (2014) BDRip 1080p | IMAX Edition | 60fps Проект Power / Project Power (2020) WEBRip 1080p | 60 fps Доктор Стрэндж / Doctor Strange (2016) BDRip 1080p | 60 fps Новые мутанты / The New Mutants (2020) BDRip 1080p | 60 fps Грань будущего / Edge of Tomorrow (2014) BDRip 1080p | 60 fps Бессмертная гвардия / The Old Guard (2020) WEBRip 1080p | 60 fps Тор: Рагнарёк / Thor: Ragnarok (2017) BDRip 1080p | 60 fps Люси / Lucy (2014) BDRip 1080p | 60 fps
  1. Longevity:
    6 years 4 months
    Posts:
    2414
    Gender:
    Male
    «Открой новую главу волшебного мира Дж.К.Роулинг»- Информация
    Название: Фантастические твари и где они обитают
    Оригинальное название: Fantastic Beasts and Where to Find Them
    Год выхода: 2016
    Жанр: Фэнтези, приключения, семейный
    Режиссер: Дэвид Йейтс
    Сценарий: Дж.К. Роулинг
    Продюсер: Нил Блэр, Дэвид Хейман, Стивен Кловз
    В ролях: Эдди Редмэйн, Кэтрин Уотерстон, Дэн Фоглер, Элисон Судол, Колин Фаррелл, Кармен Эджого, Эзра Миллер, Саманта Мортон, Рон Перлман, Джон Войт
    --Сюжет:
    Поиск и изучение необычайных волшебных существ приводят магозоолога Ньюта Саламандера в Нью-Йорк. Скорее всего, он отбыл бы на поезде дальше, если бы не не маг (так в Америке называют магглов) по имени Якоб, оставленный в неположенном месте магический чемодан и побег из него фантастических животных Ньюта.- Страна: Великобритания, США
    Продолжительность: 02:12:52

    Файл
    Кодек: MPEG4/ISO/AVC/H.264
    Формат: MKV
    Качество: BDRip 1080 | 60 fps
    Видео: 1920 x 800 (2.400) | 59.940 fps | 20.0 Мбит/сек
    Аудио 1: AC3 | 5.1 | 48 kHz | 448 kbps | 16 bit | Дубляж |
    Аудио 2: AC3 | 5.1 | 48 kHz | 448 kbps | 16 bit | ENG |
    Субтитры: Русский (форс., полные), Английский (SDH)

    MedifInfo

    Видео
    Идентификатор : 1
    Формат : AVC
    Формат/Информация : Advanced Video Codec
    Профиль формата : [email protected]
    Параметр CABAC формата : Да
    Параметр ReFrames формата : 5 кадров
    Идентификатор кодека : V_MPEG4/ISO/AVC
    Продолжительность : 2 ч. 12 м.
    Битрейт : 20,0 Мбит/сек
    Ширина : 1920 пикселей
    Высота : 800 пикселей
    Соотношение сторон : 2,40:1
    Режим частоты кадров : Постоянный
    Частота кадров : 59,880 кадров/сек
    Частота кадров в оригинале : 59,940 кадров/сек
    Цветовое пространство : YUV
    Субдискретизация насыщенности : 4:2:0
    Битовая глубина : 8 бит
    Тип развёртки : Прогрессивная
    Бит/(Пиксели*Кадры) : 0.217
    Размер потока : 18,2 Гбайт (94%)
    Заголовок : www.60-fps.org
    Библиотека кодирования : x264 core 148 r2638 7599210
    Настройки программы : cabac=1 / ref=5 / deblock=1:-3:-3 / analyse=0x3:0x113 / me=umh / subme=8 / psy=1 / psy_rd=1.00:0.25 / mixed_ref=1 / me_range=32 / chroma_me=1 / trellis=1 / 8x8dct=1 / cqm=0 / deadzone=6,6 / fast_pskip=1 / chroma_qp_offset=-4 / threads=12 / lookahead_threads=2 / sliced_threads=0 / nr=0 / decimate=0 / interlaced=0 / bluray_compat=0 / constrained_intra=0 / bframes=3 / b_pyramid=2 / b_adapt=2 / b_bias=0 / direct=3 / weightb=1 / open_gop=0 / weightp=2 / keyint=599 / keyint_min=59 / scenecut=40 / intra_refresh=0 / rc_lookahead=50 / rc=2pass / mbtree=1 / bitrate=19999 / ratetol=1.0 / qcomp=0.80 / qpmin=0 / qpmax=69 / qpstep=4 / cplxblur=20.0 / qblur=0.5 / vbv_maxrate=62500 / vbv_bufsize=78125 / nal_hrd=none / filler=0 / ip_ratio=1.10 / aq=1:0.50
    Default : Да
    Forced : Нет
    Аудио #1
    Идентификатор : 2
    Формат : AC-3
    Формат/Информация : Audio Coding 3
    Расширение режима : CM (complete main)
    Параметр Endianness формата : Big
    Идентификатор кодека : A_AC3
    Продолжительность : 2 ч. 12 м.
    Вид битрейта : Постоянный
    Битрейт : 448 Кбит/сек
    Каналы : 6 каналов
    Расположение каналов : Front: L C R, Side: L R, LFE
    Частота : 48,0 КГц
    Битовая глубина : 16 бит
    Метод сжатия : С потерями
    Размер потока : 426 Мбайт (2%)
    Заголовок : Дубляж
    Язык : Russian
    Default : Да
    Forced : Нет
    Аудио #2
    Идентификатор : 3
    Формат : AC-3
    Формат/Информация : Audio Coding 3
    Расширение режима : CM (complete main)
    Параметр Endianness формата : Big
    Идентификатор кодека : A_AC3
    Продолжительность : 2 ч. 12 м.
    Вид битрейта : Постоянный
    Битрейт : 448 Кбит/сек
    Каналы : 6 каналов
    Расположение каналов : Front: L C R, Side: L R, LFE
    Частота : 48,0 КГц
    Битовая глубина : 16 бит
    Метод сжатия : С потерями
    Размер потока : 426 Мбайт (2%)
    Заголовок : Eng
    Язык : English
    Default : Нет
    Forced : Нет
    Текст #1
    Идентификатор : 4
    Формат : UTF-8
    Идентификатор кодека : S_TEXT/UTF8
    Идентификатор кодека/Информация : UTF-8 Plain Text
    Заголовок : forced
    Язык : Russian
    Default : Да
    Forced : Нет
    Текст #2
    Идентификатор : 5
    Формат : UTF-8
    Идентификатор кодека : S_TEXT/UTF8
    Идентификатор кодека/Информация : UTF-8 Plain Text
    Язык : Russian
    Default : Нет
    Forced : Нет
    Текст #3
    Идентификатор : 6
    Формат : UTF-8
    Идентификатор кодека : S_TEXT/UTF8
    Идентификатор кодека/Информация : UTF-8 Plain Text
    Язык : English
    Default : Нет
    Forced : Нет
    Текст #4
    Идентификатор : 7
    Формат : UTF-8
    Идентификатор кодека : S_TEXT/UTF8
    Идентификатор кодека/Информация : UTF-8 Plain Text
    Заголовок : SDH
    Язык : English
    Default : Нет
    Forced : Нет
    Меню
    00:00:00.000 : en:Chapter 1
    00:08:40.269 : en:Chapter 2
    00:18:55.717 : en:Chapter 3
    00:28:23.660 : en:Chapter 4
    00:38:34.186 : en:Chapter 5
    00:48:08.594 : en:Chapter 6
    00:58:19.245 : en:Chapter 7
    01:09:14.692 : en:Chapter 8
    01:17:26.391 : en:Chapter 9
    01:29:33.659 : en:Chapter 10
    01:38:02.084 : en:Chapter 11
    01:50:27.871 : en:Chapter 12
    01:59:04.470 : en:Chapter 13
    02:04:11.944 : en:Chapter 14

    Release was prepared by 60-fps.org



    Last edited by Kryl on 2017-04-14 09:59; edited 1 time in total
  2. Longevity:
    5 years 6 months
    Posts:
    149
    Gender:
    Male
    Огромное Спасибо Овации Овации Овации
    27-Mar-2017 07:56 (after 1 month 1 day)
  3. Longevity:
    4 years 4 months
    Posts:
    1
    Gender:
    Unknown
    Улыбаюсь Улыбаюсь Улыбаюсь Умник Умник yeah
    27-Mar-2017 23:37 (after 15 hours)
  4. Longevity:
    4 years
    Posts:
    6
    Gender:
    Unknown
    cпасибо Улыбаюсь Привет
    01-Aug-2017 19:37 (after 4 months 4 days)
  5. Longevity:
    3 years 1 month
    Posts:
    1
    Gender:
    Male
    Благодарю.
    21-Jan-2018 12:00 (after 5 months 19 days)
  6. Longevity:
    3 years
    Posts:
    4
    Gender:
    Unknown
    Здравствуйте. Пожалуйста встаньте на раздачу
    17 кб в секунду вообще кошмар((
    Почти за сутки 4 процента скачалось((
    04-Sep-2018 15:59 (after 7 months 14 days)
  7. Longevity:
    4 years 6 months
    Posts:
    1575
    Gender:
    Male
    10198Здравствуйте. Пожалуйста встаньте на раздачу
    17 кб в секунду вообще кошмар((
    Почти за сутки 4 процента скачалось((
    Пока не могу увеличить скорость,в командеровке до 8 сентября... :-(
    Приеду,обязательно стану на максимальной скорости данную раздачу !
    04-Sep-2018 21:06 (after 5 hours)
  8. Longevity:
    3 years
    Posts:
    4
    Gender:
    Unknown
    Большое спасибо всем вставшим на раздачу) Скорость резво поднялась и все скачалось) Теперь и я раздаю)
    05-Sep-2018 18:15 (after 21 hour)


You cannot post new topics in this forum
You cannot reply to topics in this forum
You cannot edit your posts in this forum
You cannot delete your posts in this forum
You cannot vote in polls in this forum
You cannot attach files in this forum
You cannot download files in this forum