Хищник : Антология / Predator : Antology (1987-2018) BDRip 1080p | 60 fps Армагеддон / Armageddon (1998) BDRip 720p | 60 fps Властелин колец: Трилогия / The Lord of the Rings: Trilogy (2001-2003) BDRip-AVC | Extended Cut | 60 fps Омерзительная восьмерка / The Hateful Eight (2015) BDRip 1080p | 60 fps Голый пистолет 2 1/2: Запах страха / The Naked Gun 2½: The Smell of Fear (1991) BDRip 1080p | 60 fps Роман с камнем / Romancing the Stone (1984) BDRip 1080p | 60 fps Неистовый / Unhinged (2020) BDRip 1080p | 60 fps Звездный десант / Starship Troopers (1997) BDRip 1080p | 60 fps
  1. Longevity:
    6 years 8 months
    Posts:
    310
    Gender:
    Male
    Фантастическая четверка / Fantastic Four (2015) BDRip 720p | 60fps«Всё изменится»- Информация о фильме
    Название: Фантастическая четверка
    Оригинальное название: Fantastic Four
    Год выхода: 2015
    Жанр: Фантастика, боевик, приключения
    Режиссер: Джош Транк
    Продюсер: Грегори Гудман, Саймон Кинберг, Роберт Кульцер
    В ролях: Майлз Теллер, Майкл Б. Джордан, Кейт Мара, Джейми Белл, Тоби Кеббелл, Рег Э. Кэти, Тим Блэйк Нельсон, Джошуа Монтес, Дэн Кастелланета, Оуэн Джадж, Кайлен Дэвис, Ивэн Ханнеманн, Чет Хэнкс, Мэри-Пэт Грин, Тим Хайдекер, Мэри Рэйчел Дадли, Уэйн Пер, Ронда Дентс, Барни Леннинг
    Описание фильма:
    История о четырех молодых астронавтах, которые отважились на авантюрное путешествие в параллельное измерение для исследования аномальной волны космической энергии. Вернувшись из путешествия, они обнаружили у себя суперспособности, которые навсегда изменили их жизни…
    Страна: США, Германия, Великобритания, Канада
    Студия: 20th Century Fox Film Corporation, Constantin Film, Marvel Entertainment
    Продолжительность: 01:39:58
    Перевод: Профессиональный (Полное дублирование)
    Субтитры:Отсутствуют

    Дата мировой премьеры:5 августа 2015
    Дата российской премьеры:20 августа 2015, «Двадцатый Век Фокс СНГ»
    Файл
    Формат: MKV
    Кодек: MPEG-4 AVC/H.264
    Качество: BDRip 720p
    Видео: ~ 5502 Кбит/сек, 1280 x 544, 59.940 кадров/сек
    Аудио: AC3 5.1, 48.0 KHz, 640 Кбит/сек - Русский

    MediaInfo

    Общее
    Уникальный идентификатор : 239860191850525719154382648531948623964 (0xB47364811D7499E0B7B54C7A2F27585C)
    Полное имя : E:\Торренты\Fantastic Four 60fps.mkv
    Формат : Matroska
    Версия формата : Version 2
    Размер файла : 4,38 Гбайт
    Продолжительность : 1 ч. 39 м.
    Общий поток : 6267 Кбит/сек
    Дата кодирования : UTC 2015-12-27 17:09:20
    Программа кодирования : mkvmerge v6.1.0 ('Old Devil') built on Mar 4 2013 09:10:42
    Библиотека кодирования : libebml v1.3.0 + libmatroska v1.4.0
    Видео
    Идентификатор : 1
    Формат : AVC
    Формат/Информация : Advanced Video Codec
    Профиль формата : [email protected]
    Параметр CABAC формата : Да
    Параметр ReFrames формата : 6 кадров
    Идентификатор кодека : V_MPEG4/ISO/AVC
    Продолжительность : 1 ч. 39 м.
    Битрейт : 5502 Кбит/сек
    Ширина : 1280 пикселей
    Высота : 544 пикселя
    Соотношение сторон : 2,35:1
    Режим частоты кадров : Постоянный
    Частота кадров : 59,880 кадров/сек
    Частота кадров в оригинале : 59,940 кадров/сек
    Цветовое пространство : YUV
    Субдискретизация насыщенности : 4:2:0
    Битовая глубина : 8 бит
    Тип развёртки : Прогрессивная
    Бит/(Пиксели*Кадры) : 0.132
    Размер потока : 3,84 Гбайт (88%)
    Библиотека кодирования : x264 core 130 r2273 b3065e6
    Настройки программы : cabac=1 / ref=6 / deblock=1:0:0 / analyse=0x3:0x133 / me=umh / subme=8 / psy=1 / psy_rd=1.00:0.15 / mixed_ref=1 / me_range=20 / chroma_me=1 / trellis=2 / 8x8dct=1 / cqm=0 / deadzone=21,11 / fast_pskip=0 / chroma_qp_offset=-3 / threads=6 / lookahead_threads=2 / sliced_threads=0 / nr=0 / decimate=0 / interlaced=0 / bluray_compat=0 / constrained_intra=0 / bframes=8 / b_pyramid=2 / b_adapt=2 / b_bias=0 / direct=1 / weightb=1 / open_gop=0 / weightp=2 / keyint=250 / keyint_min=25 / scenecut=40 / intra_refresh=0 / rc=crf / mbtree=0 / crf=18.0 / qcomp=0.63 / qpmin=10 / qpmax=51 / qpstep=4 / ip_ratio=1.40 / pb_ratio=1.30 / aq=1:1.20
    Default : Да
    Forced : Нет
    Аудио
    Идентификатор : 2
    Формат : AC-3
    Формат/Информация : Audio Coding 3
    Расширение режима : CM (complete main)
    Параметр Endianness формата : Big
    Идентификатор кодека : A_AC3
    Продолжительность : 1 ч. 39 м.
    Вид битрейта : Постоянный
    Битрейт : 640 Кбит/сек
    Каналы : 6 каналов
    Расположение каналов : Front: L C R, Side: L R, LFE
    Частота : 48,0 КГц
    Битовая глубина : 16 бит
    Метод сжатия : С потерями
    Размер потока : 458 Мбайт (10%)
    Default : Да
    Forced : Нет
    Скриншоты:

    Release was prepared by 60-fps.org

  2. Longevity:
    5 years 7 months
    Posts:
    6
    Gender:
    Male
    где же раздача? :(
    06-Jan-2016 22:23 (after 21 minute)
  3. Longevity:
    6 years 8 months
    Posts:
    310
    Gender:
    Male
    4856где же раздача? :(
    Завтра только смогу раздать Грущу
    06-Jan-2016 22:32 (after 8 minutes)


You cannot post new topics in this forum
You cannot reply to topics in this forum
You cannot edit your posts in this forum
You cannot delete your posts in this forum
You cannot vote in polls in this forum
You cannot attach files in this forum
You cannot download files in this forum