[Цитировать]
Kryl

«No actual Europeans were harmed in the making of this film»- Информация
Название: Евротур
Оригинальное название: EuroTrip
Год выхода: 2004
Жанр: комедия
Режиссер: Джефф Шеффер, Алек Берг, Дэвид Мэндел
Сценарий: Алек Берг, Дэвид Мэндел, Джефф Шеффер
Продюсер: Алек Берг, Дэниэл Голдберг, Дэвид Мэндел
В ролях: Скотт Мехловиц, Джекоб Питтс, Мишель Трахтенберг, Трэвис Уэстер, Джессика Бёрс, Кристин Крук, Кэти Мейлс, Ниел Исхаков, Мэтт Дэймон, Винни Джонс
--Сюжет:
Скотт Томас — выпускник местной школы, которому нужна помощь в изучении немецкого языка, и именно для этих целей он знакомится с жителем Германии по имени Майк и начинает с ним дружескую переписку. Причём Скотт абсолютно уверен в том, что Майк — это парень, и делится с ним своими переживаниями и проблемами, которые возникают у него с девушкой. Но в конце концов Скотт узнаёт, что Майк, точнее Мике — это обворожительная блондинка, которой Скотт очень понравился. И теперь он сделает всё, чтобы увидеться с Мике, даже совершит путешествие по Европе.- Страна: США, Чехия
Продолжительность: 01:30:05

Файл
Кодек: MPEG4/ISO/AVC H.264
Формат: MKV
Качество: BDRip 720p | 60 fps
Видео: 1280 x 720 (1.778) | 59.940 fps | 10.0 Мбит/сек
Аудио 1: AC3 | 5.1 | 48 kHz | 448 kbps | 16 bit | Дубляж - R5 |
Аудио 2: AC3 | 5.1 | 48 kHz | 640 kbps | 16 bit | Авторский - А.Гаврилов |
Аудио 3: AC3 | 5.1 | 48 kHz | 640 kbps | 16 bit | Авторский - С.Визгунов |
Аудио 4: AC3 | 2.0 | 48 kHz | 192 kbps | 16 bit | Многоголосый закадровый - ТРК Україна |
Аудио 5: AC3 | 5.1 | 48 kHz | 640 kbps | 16 bit | ENG |
Субтитры: Russian (Full), English (SDH)

MedifInfo

Видео
Идентификатор : 1
Формат : AVC
Формат/Информация : Advanced Video Codec
Профиль формата : High@L4.1
Параметр CABAC формата : Да
Параметр ReFrames формата : 5 кадров
Идентификатор кодека : V_MPEG4/ISO/AVC
Продолжительность : 1 ч. 30 м.
Битрейт : 9999 Кбит/сек
Ширина : 1280 пикселей
Высота : 720 пикселей
Соотношение сторон : 16:9
Режим частоты кадров : Постоянный
Частота кадров : 59,880 кадров/сек
Частота кадров в оригинале : 59,940 кадров/сек
Цветовое пространство : YUV
Субдискретизация насыщенности : 4:2:0
Битовая глубина : 8 бит
Тип развёртки : Прогрессивная
Бит/(Пиксели*Кадры) : 0.181
Размер потока : 6,12 Гбайт (78%)
Заголовок : www.60-fps.org
Библиотека кодирования : x264 core 148 r2638 7599210
Настройки программы : cabac=1 / ref=5 / deblock=1:-3:-3 / analyse=0x3:0x113 / me=umh / subme=8 / psy=1 / psy_rd=1.00:0.25 / mixed_ref=1 / me_range=32 / chroma_me=1 / trellis=1 / 8x8dct=1 / cqm=0 / deadzone=6,6 / fast_pskip=1 / chroma_qp_offset=-4 / threads=12 / lookahead_threads=2 / sliced_threads=0 / nr=0 / decimate=0 / interlaced=0 / bluray_compat=0 / constrained_intra=0 / bframes=3 / b_pyramid=2 / b_adapt=2 / b_bias=0 / direct=3 / weightb=1 / open_gop=0 / weightp=2 / keyint=599 / keyint_min=59 / scenecut=40 / intra_refresh=0 / rc_lookahead=50 / rc=2pass / mbtree=1 / bitrate=9999 / ratetol=1.0 / qcomp=0.80 / qpmin=0 / qpmax=69 / qpstep=4 / cplxblur=20.0 / qblur=0.5 / vbv_maxrate=62500 / vbv_bufsize=78125 / nal_hrd=none / filler=0 / ip_ratio=1.10 / aq=1:0.50
Default : Да
Forced : Нет
Аудио #1
Идентификатор : 2
Формат : AC-3
Формат/Информация : Audio Coding 3
Расширение режима : CM (complete main)
Параметр Endianness формата : Big
Идентификатор кодека : A_AC3
Продолжительность : 1 ч. 30 м.
Вид битрейта : Постоянный
Битрейт : 448 Кбит/сек
Каналы : 6 каналов
Расположение каналов : Front: L C R, Side: L R, LFE
Частота : 48,0 КГц
Битовая глубина : 16 бит
Метод сжатия : С потерями
Размер потока : 289 Мбайт (4%)
Заголовок : Дубляж R5
Язык : Russian
Default : Да
Forced : Нет
Аудио #2
Идентификатор : 3
Формат : AC-3
Формат/Информация : Audio Coding 3
Расширение режима : CM (complete main)
Параметр Endianness формата : Big
Идентификатор кодека : A_AC3
Продолжительность : 1 ч. 30 м.
Вид битрейта : Постоянный
Битрейт : 640 Кбит/сек
Каналы : 6 каналов
Расположение каналов : Front: L C R, Side: L R, LFE
Частота : 48,0 КГц
Битовая глубина : 16 бит
Метод сжатия : С потерями
Размер потока : 412 Мбайт (5%)
Заголовок : Авторский А.Гаврилов
Язык : Russian
Default : Нет
Forced : Нет
Аудио #3
Идентификатор : 4
Формат : AC-3
Формат/Информация : Audio Coding 3
Расширение режима : CM (complete main)
Параметр Endianness формата : Big
Идентификатор кодека : A_AC3
Продолжительность : 1 ч. 30 м.
Вид битрейта : Постоянный
Битрейт : 640 Кбит/сек
Каналы : 6 каналов
Расположение каналов : Front: L C R, Side: L R, LFE
Частота : 48,0 КГц
Битовая глубина : 16 бит
Метод сжатия : С потерями
Размер потока : 412 Мбайт (5%)
Заголовок : Авторский С.Визгунов
Язык : Russian
Default : Нет
Forced : Нет
Аудио #4
Идентификатор : 5
Формат : AC-3
Формат/Информация : Audio Coding 3
Расширение режима : CM (complete main)
Параметр Endianness формата : Big
Идентификатор кодека : A_AC3
Продолжительность : 1 ч. 30 м.
Вид битрейта : Постоянный
Битрейт : 192 Кбит/сек
Каналы : 2 канала
Расположение каналов : Front: L R
Частота : 48,0 КГц
Битовая глубина : 16 бит
Метод сжатия : С потерями
Размер потока : 124 Мбайт (2%)
Заголовок : ТРК Україна
Язык : Ukrainian
Default : Нет
Forced : Нет
Аудио #5
Идентификатор : 6
Формат : AC-3
Формат/Информация : Audio Coding 3
Расширение режима : CM (complete main)
Параметр Endianness формата : Big
Идентификатор кодека : A_AC3
Продолжительность : 1 ч. 30 м.
Вид битрейта : Постоянный
Битрейт : 640 Кбит/сек
Каналы : 6 каналов
Расположение каналов : Front: L C R, Side: L R, LFE
Частота : 48,0 КГц
Битовая глубина : 16 бит
Метод сжатия : С потерями
Размер потока : 412 Мбайт (5%)
Заголовок : English
Язык : English
Default : Нет
Forced : Нет
Текст #1
Идентификатор : 7
Формат : UTF-8
Идентификатор кодека : S_TEXT/UTF8
Идентификатор кодека/Информация : UTF-8 Plain Text
Заголовок : Full
Язык : Russian
Default : Нет
Forced : Нет
Текст #2
Идентификатор : 8
Формат : UTF-8
Идентификатор кодека : S_TEXT/UTF8
Идентификатор кодека/Информация : UTF-8 Plain Text
Заголовок : SDH
Язык : English
Default : Нет
Forced : Нет
Меню
00:00:00.000 : :(01)00:00:00:000
00:03:00.389 : :(02)00:03:00:389
00:06:31.766 : :(03)00:06:31:766
00:08:28.883 : :(04)00:08:28:883
00:17:49.527 : :(05)00:17:49:527
00:20:03.285 : :(06)00:20:03:285
00:21:13.439 : :(07)00:21:13:439
00:27:11.547 : :(08)00:27:11:547
00:34:57.846 : :(09)00:34:57:846
00:39:05.260 : :(10)00:39:05:260
00:42:43.060 : :(11)00:42:43:060
00:45:24.847 : :(12)00:45:24:847
00:54:19.006 : :(13)00:54:19:006
00:59:43.663 : :(14)00:59:43:663
01:05:05.527 : :(15)01:05:05:527
01:09:15.818 : :(16)01:09:15:818
01:14:42.103 : :(17)01:14:42:103
01:18:02.261 : :(18)01:18:02:261
01:22:44.417 : :(19)01:22:44:417
01:25:07.352 : :(20)01:25:07:352

Релиз подготовлен 60 - fps

 
Показать сообщения:    

Текущее время: 02-Дек 21:08

Часовой пояс: UTC + 3


Вы не можете начинать темы
Вы не можете отвечать на сообщения
Вы не можете редактировать свои сообщения
Вы не можете удалять свои сообщения
Вы не можете голосовать в опросах
Вы не можете прикреплять файлы к сообщениям
Вы не можете скачивать файлы