[Цитировать]
mimok

Эверли / Everly (2014) BDRip 720p | 60fps«Она способна абсолютно на всё»- Информация о фильме
Название: Эверли
Оригинальное название: Everly
Год выхода: 2014
Жанр: Боевик, триллер
Режиссер: Джо Линч
Продюсер: Роб Пэрис, Эндрю Феффер, Адам Рипп
В ролях: Сальма Хайек, Хироюки Ватанабэ, Лаура Сепеда, Того Игава, Аки Котабе, Габриэлла Райт, Кэролайн Чикези, Дженнифер Бланк, Елена Гаврилович, Аиша Аяма
Описание фильма:
Женщина пытается выжить в схватке с бойцами якудзы, чтобы спасти своих мать и дочь. Действие всего фильма происходит в стенах одной квартиры.
Страна: США
Студия: Anonymous Content, Crime Scene Pictures
Продолжительность: 01:32:22
Перевод: Дублированный (IPTV)
Субтитры: Отсутствуют

Дата мировой премьеры: 20 сентября 2014
Дата российской премьеры: 26 февраля 2015, «Top Film Distribution»
Файл
Формат: MKV
Кодек: MPEG-4 AVC/H.264
Качество: BDRip 720p
Видео: ~ 3687 Кбит/сек, 1280 x 544, 59.940 кадров/сек
Аудио: AC3 5.1, 48.0 KHz, 448 Кбит/сек - Русский

MediaInfo

Общее
Уникальный идентификатор : 193753430202225691600525227761140703371 (0x91C38DA56C8F5720BDC4DDE0FE37208B)
Полное имя : D:\Торренты\Everly 60fps.mkv
Формат : Matroska
Версия формата : Version 2
Размер файла : 2,72 Гбайт
Продолжительность : 1 ч. 32 м.
Общий поток : 4219 Кбит/сек
Дата кодирования : UTC 2015-08-24 13:33:44
Программа кодирования : mkvmerge v6.1.0 ('Old Devil') built on Mar 4 2013 09:10:42
Библиотека кодирования : libebml v1.3.0 + libmatroska v1.4.0
Видео
Идентификатор : 1
Формат : AVC
Формат/Информация : Advanced Video Codec
Профиль формата : High@L4.1
Параметр CABAC формата : Да
Параметр ReFrames формата : 6 кадров
Идентификатор кодека : V_MPEG4/ISO/AVC
Продолжительность : 1 ч. 32 м.
Битрейт : 3687 Кбит/сек
Ширина : 1280 пикселей
Высота : 544 пикселя
Соотношение сторон : 2,35:1
Режим частоты кадров : Постоянный
Частота кадров : 59,880 кадров/сек
Частота кадров в оригинале : 59,940 кадров/сек
Цветовое пространство : YUV
Субдискретизация насыщенности : 4:2:0
Битовая глубина : 8 бит
Тип развёртки : Прогрессивная
Бит/(Пиксели*Кадры) : 0.088
Размер потока : 2,38 Гбайт (87%)
Библиотека кодирования : x264 core 130 r2273 b3065e6
Настройки программы : cabac=1 / ref=6 / deblock=1:0:0 / analyse=0x3:0x133 / me=umh / subme=8 / psy=1 / psy_rd=1.00:0.15 / mixed_ref=1 / me_range=20 / chroma_me=1 / trellis=2 / 8x8dct=1 / cqm=0 / deadzone=21,11 / fast_pskip=0 / chroma_qp_offset=-3 / threads=6 / lookahead_threads=2 / sliced_threads=0 / nr=0 / decimate=0 / interlaced=0 / bluray_compat=0 / constrained_intra=0 / bframes=8 / b_pyramid=2 / b_adapt=2 / b_bias=0 / direct=1 / weightb=1 / open_gop=0 / weightp=2 / keyint=250 / keyint_min=25 / scenecut=40 / intra_refresh=0 / rc=crf / mbtree=0 / crf=18.0 / qcomp=0.63 / qpmin=10 / qpmax=51 / qpstep=4 / ip_ratio=1.40 / pb_ratio=1.30 / aq=1:1.20
Default : Да
Forced : Нет
Аудио
Идентификатор : 2
Формат : AC-3
Формат/Информация : Audio Coding 3
Расширение режима : CM (complete main)
Параметр Endianness формата : Big
Идентификатор кодека : A_AC3
Продолжительность : 1 ч. 32 м.
Вид битрейта : Постоянный
Битрейт : 448 Кбит/сек
Каналы : 6 каналов
Расположение каналов : Front: L C R, Side: L R, LFE
Частота : 48,0 КГц
Битовая глубина : 16 бит
Метод сжатия : С потерями
Размер потока : 296 Мбайт (11%)
Default : Да
Forced : Нет

Скринлист

Скриншоты:

Релиз подготовлен 60 - fps

 
Показать сообщения:    

Текущее время: 29-Май 01:22

Часовой пояс: UTC + 3


Вы не можете начинать темы
Вы не можете отвечать на сообщения
Вы не можете редактировать свои сообщения
Вы не можете удалять свои сообщения
Вы не можете голосовать в опросах
Вы не можете прикреплять файлы к сообщениям
Вы не можете скачивать файлы