[Цитировать]
Kryl

«Самое опасное место на планете»- Информация
Название: Эверест
Оригинальное название: Everest
Год выхода: 2015
Жанр: триллер, драма, приключения, биография, история
Режиссер: Бальтасар Кормакур
Сценарий: Уильям Николсон, Саймон Бофой
Продюсер: Ники Кентиш Барнс, Тим Беван, Лиза Чейсин
В ролях: Джейсон Кларк, Джош Бролин, Джейк Джилленхол, Сэм Уортингтон, Джон Хоукс, Майкл Келли, Ингвар Эггерт Сигюрдссон, Кира Найтли, Эмили Уотсон, Робин Райт
--Сюжет:

Эверест — великая неприступная гора, покорить вершину которой мечтают многие профессиональные альпинисты. Одна из экспедиций на ее вершину закончилась настоящей трагедией, однако этот факт не останавливает отважных альпинистов.
Опытный инструктор Роб Холл, собрав группу из лучших альпинистов, собирается совершить восхождение на самую высокую вершину планеты. Все эти люди полны мужества и отваги и они не остановятся ни перед чем, пока не поднимутся на вершину Эвереста. Но даже если эта гора покорится им, смогут ли они вернуться обратно живыми и невредимыми?..
- - Страна: США, Великобритания, Исландия
Продолжительность: 02:01:10

Файл
Кодек: MPEG4/ISO/AVC H.264
Формат: MKV
Качество: BDRip 720p | 60 fps
Видео: 1280 x 536 (2.388) | 59.940 fps | 10.0 Мбит/сек
Аудио 1: AC3 | 5.1 | 48 kHz | 448 kbps | 16 bit | Дубляж |
Аудио 2: AC3 | 5.1 | 48 kHz | 448 kbps | 16 bit | ENG |
Субтитры: Русские (форс,полные), Английские

MedifInfo

Видео
Идентификатор : 1
Формат : AVC
Формат/Информация : Advanced Video Codec
Профиль формата : High@L4.1
Параметр CABAC формата : Да
Параметр ReFrames формата : 3 кадра
Идентификатор кодека : V_MPEG4/ISO/AVC
Продолжительность : 2 ч. 1 м.
Вид битрейта : Переменный
Битрейт : 9314 Кбит/сек
Максимальный битрейт : 10000 Кбит/сек
Ширина : 1280 пикселей
Высота : 536 пикселей
Соотношение сторон : 2,40:1
Режим частоты кадров : Постоянный
Частота кадров : 59,880 кадров/сек
Частота кадров в оригинале : 59,940 кадров/сек
Стандарт вещания : PAL
Цветовое пространство : YUV
Субдискретизация насыщенности : 4:2:0
Битовая глубина : 8 бит
Тип развёртки : Прогрессивная
Бит/(Пиксели*Кадры) : 0.227
Размер потока : 7,88 Гбайт (89%)
Заголовок : www.60-fps.org
Язык : English
Default : Да
Forced : Нет
Основные цвета : BT.601 NTSC
Характеристики трансфера : BT.601
Коэффициенты матрицы : BT.601
colour_range : Limited
Аудио #1
Идентификатор : 2
Формат : AC-3
Формат/Информация : Audio Coding 3
Расширение режима : CM (complete main)
Параметр Endianness формата : Big
Идентификатор кодека : A_AC3
Продолжительность : 2 ч. 1 м.
Вид битрейта : Постоянный
Битрейт : 448 Кбит/сек
Каналы : 6 каналов
Расположение каналов : Front: L C R, Side: L R, LFE
Частота : 48,0 КГц
Битовая глубина : 16 бит
Метод сжатия : С потерями
Размер потока : 388 Мбайт (4%)
Заголовок : Rus
Язык : Russian
Default : Да
Forced : Нет
Аудио #2
Идентификатор : 3
Формат : AC-3
Формат/Информация : Audio Coding 3
Расширение режима : CM (complete main)
Параметр Endianness формата : Big
Идентификатор кодека : A_AC3
Продолжительность : 2 ч. 1 м.
Вид битрейта : Постоянный
Битрейт : 448 Кбит/сек
Каналы : 6 каналов
Расположение каналов : Front: L C R, Side: L R, LFE
Частота : 48,0 КГц
Битовая глубина : 16 бит
Метод сжатия : С потерями
Размер потока : 388 Мбайт (4%)
Заголовок : Eng
Язык : English
Default : Нет
Forced : Нет
Текст #1
Идентификатор : 4
Формат : UTF-8
Идентификатор кодека : S_TEXT/UTF8
Идентификатор кодека/Информация : UTF-8 Plain Text
Заголовок : Rus forced
Язык : Russian
Default : Да
Forced : Да
Текст #2
Идентификатор : 5
Формат : UTF-8
Идентификатор кодека : S_TEXT/UTF8
Идентификатор кодека/Информация : UTF-8 Plain Text
Заголовок : Rus
Язык : Russian
Default : Нет
Forced : Нет
Текст #3
Идентификатор : 6
Формат : UTF-8
Идентификатор кодека : S_TEXT/UTF8
Идентификатор кодека/Информация : UTF-8 Plain Text
Заголовок : Eng
Язык : English
Default : Нет
Forced : Нет
Меню
00:00:00.000 : :Chapter 01
00:05:12.145 : :Chapter 02
00:09:36.075 : :Chapter 03
00:15:13.162 : :Chapter 04
00:20:58.423 : :Chapter 05
00:26:30.714 : :Chapter 06
00:33:15.118 : :Chapter 07
00:40:23.754 : :Chapter 08
00:47:23.382 : :Chapter 09
00:52:14.589 : :Chapter 10
00:57:49.174 : :Chapter 11
01:01:54.794 : :Chapter 12
01:07:22.079 : :Chapter 13
01:15:40.577 : :Chapter 14
01:21:03.900 : :Chapter 15
01:26:59.589 : :Chapter 16
01:32:39.136 : :Chapter 17
01:41:20.449 : :Chapter 18
01:46:47.651 : :Chapter 19
01:54:06.464 : :Chapter 20
02:01:10.221 : :Chapter 21

Релиз подготовлен 60 - fps

[Цитировать]
ENIGMA

Большое Спасибо!)

[Цитировать]
unquaid

Спасибо! Жаль что не 1080р

[Цитировать]
Марат Кенжебеков

Друзья, этот фильм сделал такую огромную дыру в моем сердце, что я все еще не могу прийти в себя от увиденного.
Фильм, изначально гарантированный на провал по моему мнению полностью сломал мое профессиальное (опять же по моему мнению) мнение, что я даже и не могу четко, объективно, прозрачно и открыто судить по фильму.
Фильм, собравший очень хороших актеров, выполнил такую задачу, где показывают сущность природы человека, как он меняется под ударом жизненных ситуации, как смертельно опасная природа манит человека - даже если он физически и морально не подготовлен, человеку всегда будет не хватать того адреналина, того естественного тайного притяжения к необъятному, что сами того не ожидая становятся жертвами своих же жалений.
Я возлюбил этот фильм, и он однозначно вписался в мой список самых любимых и притягательных фильмов.
Советую всем посмотреть этот фильм, каждый найдет свою точку опоры мнения, но каким бы он ни был он даст нам понять, что жизнь данная нам Всевышним это великий дар, и прожить его нужно так, чтобы потомки восхваляли нашу память. Плачу

[Цитировать]
urok1981

Ну раз есть такой отзыв, стоит глянуть Умник

[Цитировать]
Fluktuon

Круто!! Такой фильм да еще в таком качестве!! Спасибо релизеру!! Привет

[Цитировать]
kotik87

Не качает Мне скучно

[Цитировать]
djon3volta

Встаньте пожалуста на раздачу Нет слов
 
Показать сообщения:    

Текущее время: 10-Дек 19:37

Часовой пояс: UTC + 3


Вы не можете начинать темы
Вы не можете отвечать на сообщения
Вы не можете редактировать свои сообщения
Вы не можете удалять свои сообщения
Вы не можете голосовать в опросах
Вы не можете прикреплять файлы к сообщениям
Вы не можете скачивать файлы