Rammstein (БЕЗ ЦЕНЗУРЫ)| WEBRip 1080p | 60 fps Britney Spears - Oops! I Did It Again Uncut (2009) HD 1080p | 60 fps BLACKPINK | WEBRip 1080p | 60 fps Britney Spears - Toxic (2004) HDTVRip 1080p | 60 fps Evanescence - Synthesis Live (2018) BDRip 1080p | 60 fps Jennifer Lopez ft. Iggy Azalea - Booty (2014) Full HD 1080p | 60 fps Luis Fonsi - Despacito ft. Daddy Yankee (2017) WEBRip 1080p | 60 fps Britney Spears - ...Baby One More Time (2009) Full HD 1080p | 60 fps
  1. Longevity:
    5 years 8 months
    Posts:
    283
    Gender:
    Male
    Enrique Iglesias feat. Luan Santana & Gente D'Zona & Descember Bueno - Bailando (Portugues) (2014) Full HD 1080p | 60 fps

    Информация о Клипе:
    Исполнители: Enrique Iglesias feat. Luan Santana & Gente D'Zona & Descember Bueno
    Название: Bailando (Portugues)
    Год выпуска: 2014 г.
    Жанр: Поп
    Продолжительность: 00:04:17

    Файл:
    Формат видео: MKV
    Качество видео: Master 1080p | 60fps
    Видео кодек: H.264
    Аудио кодек: AC3
    Видео: 1920x740 | 60,000 кадров/сек | 18,8 Мбит/сек
    Аудио: AC3 | 6 channels | 48 kHz |384 Кбит/сек

    Автор Релиза:Kamikkadze

    Отчёт MediaInfo

    Видео
    Идентификатор : 1
    Формат : AVC
    Формат/Информация : Advanced Video Codec
    Профиль формата : High@L4.1
    Параметр CABAC формата : Да
    Параметр ReFrames формата : 4 кадра
    Идентификатор кодека : V_MPEG4/ISO/AVC
    Продолжительность : 4 м. 17 с.
    Битрейт : 18,8 Мбит/сек
    Ширина : 1920 пикселей
    Высота : 740 пикселей
    Соотношение сторон : 2,595
    Режим частоты кадров : Постоянный
    Частота кадров : 60,000 кадров/сек
    Цветовое пространство : YUV
    Субдискретизация насыщенности : 4:2:0
    Битовая глубина : 8 бит
    Тип развёртки : Прогрессивная
    Бит/(Пиксели*Кадры) : 0.221
    Размер потока : 565 Мбайт (96%)
    Заголовок : Rip By Kamikkadze(Специально для проекта 60-fps)
    Библиотека кодирования : x264 core 130 r2273 b3065e6
    Настройки программы : cabac=1 / ref=3 / deblock=1:0:0 / analyse=0x3:0x113 / me=hex / subme=7 / psy=1 / psy_rd=1.00:0.00 / mixed_ref=1 / me_range=16 / chroma_me=1 / trellis=1 / 8x8dct=1 / cqm=0 / deadzone=21,11 / fast_pskip=1 / chroma_qp_offset=-2 / threads=6 / lookahead_threads=1 / sliced_threads=0 / nr=0 / decimate=1 / interlaced=0 / bluray_compat=0 / constrained_intra=0 / bframes=3 / b_pyramid=2 / b_adapt=1 / b_bias=0 / direct=3 / weightb=1 / open_gop=0 / weightp=2 / keyint=250 / keyint_min=25 / scenecut=40 / intra_refresh=0 / rc_lookahead=40 / rc=2pass / mbtree=1 / bitrate=18818 / ratetol=1.0 / qcomp=0.60 / qpmin=0 / qpmax=69 / qpstep=4 / cplxblur=20.0 / qblur=0.5 / vbv_maxrate=50000 / vbv_bufsize=50000 / nal_hrd=none / ip_ratio=1.40 / aq=1:1.00
    Язык : Portuguese
    Default : Да
    Forced : Нет
    Аудио
    Идентификатор : 2
    Формат : AC-3
    Формат/Информация : Audio Coding 3
    Расширение режима : CM (complete main)
    Параметр Endianness формата : Big
    Идентификатор кодека : A_AC3
    Продолжительность : 4 м. 17 с.
    Вид битрейта : Постоянный
    Битрейт : 384 Кбит/сек
    Каналы : 6 каналов
    Расположение каналов : Front: L C R, Side: L R, LFE
    Частота : 48,0 КГц
    Битовая глубина : 16 бит
    Метод сжатия : С потерями
    Размер потока : 11,8 Мбайт (2%)
    Заголовок : Rip By Kamikkadze(Специально для проекта 60-fps)
    Язык : Portuguese
    Default : Да
    Forced : Нет
  2. Longevity:
    5 years 8 months
    Posts:
    283
    Gender:
    Male
    7370no seed... Плачу
    I Seeding
    14-Feb-2017 17:11 (after 1 year 10 months)


You cannot post new topics in this forum
You cannot reply to topics in this forum
You cannot edit your posts in this forum
You cannot delete your posts in this forum
You cannot vote in polls in this forum
You cannot attach files in this forum
You cannot download files in this forum