Чёрная Пантера / Black Panther (2018) BDRip 1080p | 60 fps Ночные игры / Game Night (2018) BDRip 720p | 60 fps Тихоокеанский рубеж 2 / Pacific Rim: Uprising (2018) BDRip 1080p | 60 fps Ограбление в ураган / The Hurricane Heist (2018) BDRip 720p | 60 fps Чёрная Пантера / Black Panther (2018) BDRip 720p | 60 fps Красный воробей / Red Sparrow (2018) BDRip 720p | 60 fps Я худею (2018) BDRip 1080p | 60 FPS Поезд на Париж / The 15:17 to Paris (2018) BDRip 720p | 60 fps
  1. Стаж:
    1 год 9 месяцев
    Сообщений:
    476
    Пол:
    Мужской
    «Not Easy Being Meh»- Информация
    Название: Эмоджи фильм
    Оригинальное название: The Emoji Movie
    Год выхода: 2017
    Жанр: мультфильм, комедия, приключения, семейный
    Режиссер: Энтони Леондис
    Сценарий: Энтони Леондис, Эрик Сигел, Майк Уайт
    Продюсер: Тереза Бентц, Джон Крейдман, Мишель Раймо
    В ролях: ТиДжей Миллер,Джеймс Корден,Анна Фэрис,Майя Рудольф,Стивен Райт,Дженнифер Кулидж,Патрик Стюарт,Кристина Агилера,София Вергара,Рэйчел Рэй
    --Сюжет:
    Знаете ли вы, что внутри каждого смартфона есть красочный городок Текстополис, в котором живут эмоджи? И что они ужасно радуются, когда владелец телефона именно их выбирает для своего сообщения? Каждый из эмоджи отвечает лишь за одну эмоцию, и только Джин может выражать несколько эмоций сразу. Он очень хочет стать таким же, как и его собратья, и для этого вместе со своими друзьями пускается в увлекательное путешествие по приложениям телефона в поисках программы, которая поможет ему измениться. Неожиданно герои узнают о грозной опасности, нависшей над городом. Смогут ли друзья спасти Текстополис и всех его обитателей?- Страна: США
    Продолжительность: 01:26:22

    Файл
    Кодек: MPEG4/ISO/AVC/H.264
    Формат: MKV
    Качество: BDRip 1080p | 60 fps
    Видео: 1920 x 800 (2.400) | 59.940 fps | 24.6 Мбит/сек
    Аудио 1: AC-3| 5.1 | 48 kHz | 640 Кбит/сек | 16 bit | Дубляж (Лицензия) |
    Аудио 2: AC-3| 5.1 | 48 kHz | 640 Кбит/сек | 16 bit | Дубляж (Лицензия)Лицензия
    Аудио 3: DTS-HD MA| 5.1 | 48 kHz | 2255 Кбит/сек / 1509 Кбит/сек | 16 bit | Орегинал
    Субтитры:

    MedifInfo

    Видео
    Идентификатор : 1
    Формат : AVC
    Формат/Информация : Advanced Video Codec
    Профиль формата : High@L4.1
    Параметр CABAC формата : Да
    Параметр ReFrames формата : 5 кадров
    Идентификатор кодека : V_MPEG4/ISO/AVC
    Продолжительность : 1 ч. 26 м.
    Битрейт : 24,6 Мбит/сек
    Ширина : 1920 пикселей
    Высота : 800 пикселей
    Соотношение сторон : 2,40:1
    Режим частоты кадров : Постоянный
    Частота кадров : 59,940 (60000/1001) кадров/сек
    Цветовое пространство : YUV
    Субдискретизация насыщенности : 4:2:0
    Битовая глубина : 8 бит
    Тип развёртки : Прогрессивная
    Бит/(Пиксели*Кадры) : 0.267
    Размер потока : 14,8 Гбайт (87%)
    Заголовок : Талямба: 60-fps.org
    Библиотека кодирования : x264 core 146 r2538 121396c
    Настройки программы : cabac=1 / ref=5 / deblock=1:1:1 / analyse=0x3:0x113 / me=hex / subme=7 / psy=1 / psy_rd=0.40:0.00 / mixed_ref=1 / me_range=16 / chroma_me=1 / trellis=1 / 8x8dct=1 / cqm=0 / deadzone=21,11 / fast_pskip=1 / chroma_qp_offset=-2 / threads=12 / lookahead_threads=2 / sliced_threads=0 / nr=0 / decimate=1 / interlaced=0 / bluray_compat=0 / constrained_intra=0 / bframes=5 / b_pyramid=2 / b_adapt=1 / b_bias=0 / direct=1 / weightb=1 / open_gop=0 / weightp=2 / keyint=599 / keyint_min=59 / scenecut=40 / intra_refresh=0 / rc_lookahead=40 / rc=2pass / mbtree=1 / bitrate=24600 / ratetol=1.0 / qcomp=0.60 / qpmin=0 / qpmax=69 / qpstep=4 / cplxblur=20.0 / qblur=0.5 / vbv_maxrate=50000 / vbv_bufsize=50000 / nal_hrd=none / filler=0 / ip_ratio=1.40 / aq=1:0.60
    Язык : English
    Default : Да
    Forced : Нет
    Аудио #1
    Идентификатор : 2
    Формат : AC-3
    Формат/Информация : Audio Coding 3
    Расширение режима : CM (complete main)
    Параметр Endianness формата : Big
    Идентификатор кодека : A_AC3
    Продолжительность : 1 ч. 26 м.
    Вид битрейта : Постоянный
    Битрейт : 640 Кбит/сек
    Каналы : 6 каналов
    Расположение каналов : Front: L C R, Side: L R, LFE
    Частота : 48,0 КГц
    Частота кадров : 31,250 кадров/сек (1536 spf)
    Битовая глубина : 16 бит
    Метод сжатия : С потерями
    Задержка видео : 6 мс.
    Размер потока : 395 Мбайт (2%)
    Заголовок : Дуюляж (Лицензия)
    Язык : Russian
    Default : Да
    Forced : Нет
    Аудио #2
    Идентификатор : 3
    Формат : AC-3
    Формат/Информация : Audio Coding 3
    Расширение режима : CM (complete main)
    Параметр Endianness формата : Big
    Идентификатор кодека : A_AC3
    Продолжительность : 1 ч. 26 м.
    Вид битрейта : Постоянный
    Битрейт : 640 Кбит/сек
    Каналы : 6 каналов
    Расположение каналов : Front: L C R, Side: L R, LFE
    Частота : 48,0 КГц
    Частота кадров : 31,250 кадров/сек (1536 spf)
    Битовая глубина : 16 бит
    Метод сжатия : С потерями
    Задержка видео : 6 мс.
    Размер потока : 395 Мбайт (2%)
    Заголовок : Дубляж (Лицензия)
    Язык : Ukrainian
    Default : Нет
    Forced : Нет
    Аудио #3
    Идентификатор : 4
    Формат : DTS
    Формат/Информация : Digital Theater Systems
    Профиль формата : MA / Core
    Режим : 16
    Параметр Endianness формата : Big
    Идентификатор кодека : A_DTS
    Продолжительность : 1 ч. 26 м.
    Вид битрейта : Переменный / Постоянный
    Битрейт : 2255 Кбит/сек / 1509 Кбит/сек
    Каналы : 6 каналов
    Расположение каналов : Front: L C R, Side: L R, LFE
    Частота : 48,0 КГц
    Частота кадров : 93,750 кадра/сек (512 spf)
    Битовая глубина : 16 бит
    Метод сжатия : Без потерь / Lossy
    Размер потока : 1,36 Гбайт (8%)
    Заголовок : Оригинал
    Язык : English
    Default : Нет
    Forced : Нет
    Текст #1
    Идентификатор : 5
    Формат : UTF-8
    Идентификатор кодека : S_TEXT/UTF8
    Идентификатор кодека/Информация : UTF-8 Plain Text
    Продолжительность : 1 ч. 25 м.
    Битрейт : 85 бит/сек
    Count of elements : 1228
    Размер потока : 53,3 Кбайт (0%)
    Заголовок : Full
    Язык : Russian
    Default : Нет
    Forced : Нет
    Текст #2
    Идентификатор : 6
    Формат : UTF-8
    Идентификатор кодека : S_TEXT/UTF8
    Идентификатор кодека/Информация : UTF-8 Plain Text
    Продолжительность : 1 ч. 19 м.
    Битрейт : 64 бит/сек
    Count of elements : 1224
    Размер потока : 37,6 Кбайт (0%)
    Заголовок : Full
    Язык : English
    Default : Нет
    Forced : Нет
    Текст #3
    Идентификатор : 7
    Формат : UTF-8
    Идентификатор кодека : S_TEXT/UTF8
    Идентификатор кодека/Информация : UTF-8 Plain Text
    Продолжительность : 1 ч. 19 м.
    Битрейт : 84 бит/сек
    Count of elements : 1656
    Размер потока : 49,0 Кбайт (0%)
    Заголовок : SDH
    Язык : English
    Default : Нет
    Forced : Нет
    Меню
    00:00:00.000 : en:Chapter 01
    00:05:12.478 : en:Chapter 02
    00:11:38.531 : en:Chapter 03
    00:15:49.406 : en:Chapter 04
    00:22:24.051 : en:Chapter 05
    00:26:48.356 : en:Chapter 06
    00:32:11.262 : en:Chapter 07
    00:39:15.186 : en:Chapter 08
    00:44:16.487 : en:Chapter 09
    00:48:42.753 : en:Chapter 10
    00:53:07.392 : en:Chapter 11
    00:58:19.370 : en:Chapter 12
    01:02:35.752 : en:Chapter 13
    01:07:18.784 : en:Chapter 14
    01:11:54.893 : en:Chapter 15
    01:16:05.394 : en:Chapter 16
  2. Стаж:
    1 год 9 месяцев
    Сообщений:
    476
    Пол:
    Мужской
    Очень крутой мульт,я прям от души посмотрел... !
    Советую всем...! Да
    05-Июн-2018 01:07 (спустя 3 минуты)


Вы не можете начинать темы
Вы не можете отвечать на сообщения
Вы не можете редактировать свои сообщения
Вы не можете удалять свои сообщения
Вы не можете голосовать в опросах
Вы не можете прикреплять файлы к сообщениям
Вы не можете скачивать файлы