[Цитировать]
Kryl

-EMIN и Паулина Андреева - Я лучше всех живу (2014) MasterRip 1080p | 60 fps- --Информация о Клипе
Исполнитель: EMIN и Паулина Андреева
Название: Я лучше всех живу
Год выхода: 2014
Продолжительность: 00:03:55-Файл
Кодек: MPEG4/ISO/AVC/ H.264
Формат: MKV
Качество: MasterRip
Видео: 1920 x 1080 (1.778) at 60.000 fps 20.0 Мбит/сек
Аудио: AC-3 | 640 Кбит/сек | 44.1 KHz | 2 channels

MI

Видео
Идентификатор : 1
Формат : AVC
Формат/Информация : Advanced Video Codec
Профиль формата : High@L5.0
Параметр CABAC формата : Да
Параметр ReFrames формата : 8 кадров
Идентификатор кодека : V_MPEG4/ISO/AVC
Продолжительность : 3 м. 55 с.
Битрейт : 20,0 Мбит/сек
Ширина : 1920 пикселей
Высота : 1080 пикселей
Соотношение сторон : 16:9
Режим частоты кадров : Постоянный
Частота кадров : 60,000 кадров/сек
Цветовое пространство : YUV
Субдискретизация насыщенности : 4:2:0
Битовая глубина : 8 бит
Тип развёртки : Прогрессивная
Бит/(Пиксели*Кадры) : 0.161
Размер потока : 548 Мбайт (95%)
Заголовок : www.60-fps.org
Библиотека кодирования : x264 core 129 r2245 bc13772
Настройки программы : cabac=1 / ref=8 / deblock=1:-1:-1 / analyse=0x3:0x133 / me=esa / subme=9 / psy=1 / psy_rd=1.00:0.25 / mixed_ref=1 / me_range=32 / chroma_me=1 / trellis=2 / 8x8dct=1 / cqm=0 / deadzone=6,6 / fast_pskip=1 / chroma_qp_offset=-4 / threads=12 / lookahead_threads=2 / sliced_threads=0 / nr=0 / decimate=0 / interlaced=0 / bluray_compat=0 / constrained_intra=0 / bframes=3 / b_pyramid=2 / b_adapt=2 / b_bias=0 / direct=3 / weightb=1 / open_gop=0 / weightp=2 / keyint=600 / keyint_min=60 / scenecut=40 / intra_refresh=0 / rc_lookahead=60 / rc=2pass / mbtree=1 / bitrate=19999 / ratetol=1.0 / qcomp=0.80 / qpmin=0 / qpmax=69 / qpstep=4 / cplxblur=19.0 / qblur=0.0 / ip_ratio=1.10 / aq=1:0.50
Язык : English
Default : Нет
Forced : Нет
Аудио
Идентификатор : 2
Формат : AC-3
Формат/Информация : Audio Coding 3
Расширение режима : CM (complete main)
Параметр Endianness формата : Big
Идентификатор кодека : A_AC3
Продолжительность : 3 м. 55 с.
Вид битрейта : Постоянный
Битрейт : 640 Кбит/сек
Каналы : 2 канала
Расположение каналов : Front: L R
Частота : 44,1 КГц
Битовая глубина : 16 бит
Метод сжатия : С потерями
Размер потока : 18,0 Мбайт (3%)
Заголовок : www.60-fps.org
Язык : English
Default : Да
Forced : Нет
-

MI ИСХОДНИКА

Формат : MPEG-4
Профиль формата : QuickTime
Идентификатор кодека : qt
Размер файла : 7,14 Гбайт
Продолжительность : 3 м. 55 с.
Режим общего битрейта : Переменный
Общий поток : 260 Мбит/сек
Дата кодирования : UTC 2014-02-26 20:01:35
Дата пометки : UTC 2014-02-26 20:07:58
Библиотека кодирования : Apple QuickTime 7.7.4
com.apple.quicktime.player.movie.audio.m : (Binary)
©TSC : 25
©TSZ : 1
Видео
Идентификатор : 1
Формат : ProRes
Версия формата : Version 1
Идентификатор кодека : ap4h
Продолжительность : 3 м. 55 с.
Вид битрейта : Переменный
Битрейт : 259 Мбит/сек
Ширина : 1920 пикселей
Высота : 1080 пикселей
Соотношение сторон : 16:9
Режим частоты кадров : Постоянный
Частота кадров : 25,000 кадров/сек
Субдискретизация насыщенности : 4:4:4
Тип развёртки : Прогрессивная
Бит/(Пиксели*Кадры) : 4.995
Размер потока : 7,09 Гбайт (99%)
Заголовок : Обработчик видео Apple / Обработчик псевдонимов Apple
Библиотека кодирования : abm0
Язык : English
Дата кодирования : UTC 2014-02-26 13:43:43
Дата пометки : UTC 2014-02-26 20:07:58
Основные цвета : BT.709
Характеристики трансфера : BT.709
Коэффициенты матрицы : BT.709
matrix_coefficients_Original : BT.709
Аудио
Идентификатор : 5
Формат : PCM
Параметр Endianness формата : Little
Параметр Sign формата : Signed
Идентификатор кодека : sowt
Продолжительность : 3 м. 55 с.
Вид битрейта : Постоянный
Битрейт : 1536 Кбит/сек
Каналы : 2 канала
Расположение каналов : Front: L R
Частота : 48,0 КГц
Битовая глубина : 16 бит
Размер потока : 43,1 Мбайт (1%)
Заголовок : Обработчик звука Apple / Обработчик псевдонимов Apple
Язык : English
Дата кодирования : UTC 2014-02-26 20:01:16
Дата пометки : UTC 2014-02-26 20:07:58
Прочее
Идентификатор : 3
Тип : Time code
Формат : QuickTime TC
Продолжительность : 3 м. 55 с.
Временной код первого кадра : 01:00:00:00
Параметры временного кода : Striped
Заголовок : Обработчик временного кода / Обработчик псевдонимов Apple
Язык : English
Дата кодирования : UTC 2014-02-26 13:45:39
Дата пометки : UTC 2014-02-26 20:07:58

Релиз подготовлен 60 - fps

 
Показать сообщения:    

Текущее время: 10-Дек 19:36

Часовой пояс: UTC + 3


Вы не можете начинать темы
Вы не можете отвечать на сообщения
Вы не можете редактировать свои сообщения
Вы не можете удалять свои сообщения
Вы не можете голосовать в опросах
Вы не можете прикреплять файлы к сообщениям
Вы не можете скачивать файлы