[Цитировать]
Kryl

«Fast & furry-ous»- Информация
Название: Элвин и бурундуки: Грандиозное бурундуключение
Оригинальное название: Alvin and the Chipmunks: The Road Chip
Год выхода: 2015
Жанр: мультфильм, комедия, приключения, семейный
Режиссер: Уолт Бекер
Сценарий: Рэнди Мейем Сингер, Адам Щтикель, Росс Багдасарян
Продюсер: Дженис Карман, Росс Багдасарян мл., Дэвид МакКимми
В ролях: Джейсон Ли, Джастин Лонг, Мэттью Грей Гублер ,Джесси МакКартни ,Кимберли Уильямс-Пэйсли, Джош Грин, Тони Хейл, Белла Торн ,Эдди Стиплз, Кристина Эпплгейт
--Сюжет:
Бурундуки пойдут на всё, чтобы сохранить свою семью, даже на грандиозное бурундуключение по всей Америке!
Когда Бурундуки видят, что Дэйв берет с собой коробочку с кольцом в поездку в Майами, они отчаянно пытаются помешать ему сделать предложение его девушке — из опасения, что мачеха и сводный брат внесут перемены в их семейную идиллию. Но после того, как их помещают в черный список за хулиганское поведение в самолете, Элвин, Саймон, Теодор и их будущий брат Майлз отправляются в самое важное путешествие в их жизни через всю страну, чтобы успеть помешать помолвке.
- Страна: США
Продолжительность: 01:32:00

Файл
Кодек: MPEG4/ISO/AVC H.264
Формат: MKV
Качество: BDRip 720р | 60 fps
Видео: 1280 x 690 (1.855) | 59.940 fps | 10.0 Мбит/сек
Аудио 1: AC3 | 5.1 | 48 kHz | 384 kbps | 16 bit | Профессиональный (дублированный) iTunes |
Аудио 2: AC3 | 5.1| 48 kHz | 384 kbps | 16 bit | ENG |
Субтитры: Rus, Eng

MedifInfo

Видео
Идентификатор : 1
Формат : AVC
Формат/Информация : Advanced Video Codec
Профиль формата : High@L4.1
Параметр CABAC формата : Да
Параметр ReFrames формата : 3 кадра
Идентификатор кодека : V_MPEG4/ISO/AVC
Продолжительность : 1 ч. 32 м.
Вид битрейта : Переменный
Битрейт : 9714 Кбит/сек
Максимальный битрейт : 10000 Кбит/сек
Ширина : 1280 пикселей
Высота : 690 пикселей
Соотношение сторон : 1,85:1
Режим частоты кадров : Постоянный
Частота кадров : 59,880 кадров/сек
Частота кадров в оригинале : 59,940 кадров/сек
Стандарт вещания : PAL
Цветовое пространство : YUV
Субдискретизация насыщенности : 4:2:0
Битовая глубина : 8 бит
Тип развёртки : Прогрессивная
Бит/(Пиксели*Кадры) : 0.184
Размер потока : 6,24 Гбайт (91%)
Заголовок : www.60-fps.org
Язык : English
Default : Да
Forced : Нет
Основные цвета : BT.709
Характеристики трансфера : BT.709
Коэффициенты матрицы : BT.709
colour_range : Limited
DURATION : 01:32:00.159000000
NUMBER_OF_FRAMES : 172506
NUMBER_OF_BYTES : 264969216
_STATISTICS_WRITING_APP : mkvmerge v7.6.0 ('Garden of Dreams') 32bit built on Feb 8 2015 12:51:39
_STATISTICS_WRITING_DATE_UTC : 2016-04-02 16:17:10
_STATISTICS_TAGS : BPS DURATION NUMBER_OF_FRAMES NUMBER_OF_BYTES
Аудио #1
Идентификатор : 2
Формат : AC-3
Формат/Информация : Audio Coding 3
Расширение режима : CM (complete main)
Параметр Endianness формата : Big
Идентификатор кодека : A_AC3
Продолжительность : 1 ч. 32 м.
Вид битрейта : Постоянный
Битрейт : 384 Кбит/сек
Каналы : 6 каналов
Расположение каналов : Front: L C R, Side: L R, LFE
Частота : 48,0 КГц
Битовая глубина : 16 бит
Метод сжатия : С потерями
Размер потока : 253 Мбайт (4%)
Заголовок : iTunes
Язык : Russian
Default : Да
Forced : Нет
Аудио #2
Идентификатор : 3
Формат : AC-3
Формат/Информация : Audio Coding 3
Расширение режима : CM (complete main)
Параметр Endianness формата : Big
Идентификатор кодека : A_AC3
Продолжительность : 1 ч. 32 м.
Вид битрейта : Постоянный
Битрейт : 384 Кбит/сек
Каналы : 6 каналов
Расположение каналов : Front: L C R, Side: L R, LFE
Частота : 48,0 КГц
Битовая глубина : 16 бит
Метод сжатия : С потерями
Размер потока : 253 Мбайт (4%)
Заголовок : ENG
Язык : English
Default : Нет
Forced : Нет
Текст #1
Идентификатор : 4
Формат : UTF-8
Идентификатор кодека : S_TEXT/UTF8
Идентификатор кодека/Информация : UTF-8 Plain Text
Заголовок : forced
Язык : Russian
Default : Да
Forced : Нет
Текст #2
Идентификатор : 5
Формат : UTF-8
Идентификатор кодека : S_TEXT/UTF8
Идентификатор кодека/Информация : UTF-8 Plain Text
Язык : Russian
Default : Нет
Forced : Нет
Текст #3
Идентификатор : 6
Формат : UTF-8
Идентификатор кодека : S_TEXT/UTF8
Идентификатор кодека/Информация : UTF-8 Plain Text
Язык : English
Default : Нет
Forced : Нет
Меню
00:00:00.000 : en:00:00:00.000
00:05:35.209 : en:00:05:35.209
00:08:09.322 : en:00:08:09.322
00:12:31.041 : en:00:12:31.041
00:16:40.331 : en:00:16:40.331
00:20:11.084 : en:00:20:11.084
00:22:45.446 : en:00:22:45.446
00:24:56.869 : en:00:24:56.869
00:27:57.217 : en:00:27:57.217
00:30:30.827 : en:00:30:30.827
00:35:27.750 : en:00:35:27.750
00:39:55.059 : en:00:39:55.059
00:42:55.530 : en:00:42:55.530
00:45:58.505 : en:00:45:58.505
00:49:43.480 : en:00:49:43.480
00:55:16.563 : en:00:55:16.563
00:58:13.489 : en:00:58:13.489
01:01:46.244 : en:01:01:46.244
01:04:39.000 : en:01:04:39.000
01:09:26.662 : en:01:09:26.662
01:13:25.859 : en:01:13:25.859
01:16:30.877 : en:01:16:30.877
01:21:39.810 : en:01:21:39.810
01:25:03.931 : en:01:25:03.931

Релиз подготовлен 60 - fps

 
Показать сообщения:    

Текущее время: 10-Дек 19:39

Часовой пояс: UTC + 3


Вы не можете начинать темы
Вы не можете отвечать на сообщения
Вы не можете редактировать свои сообщения
Вы не можете удалять свои сообщения
Вы не можете голосовать в опросах
Вы не можете прикреплять файлы к сообщениям
Вы не можете скачивать файлы