Taylor Swift - …Ready For It? (2017) WEBRip 1080p | 60 fps Luis Fonsi - Despacito ft. Daddy Yankee (2017) WEBRip 1080p | 60 fps Dan Balan - Chica Bomb (2010) WEBRip 1080p | 60 fps Serebro - В Космосе (2017) Full HD 1080p | 60 fps Shakira - Chantaje ft. Maluma (2016) Full HD 1080p | 60 fps Serebro - Пройдёт (Mood Video) (2017) Full HD 1080p | 60 fps Katy Perry - Bon Appétit ft. Migos (2017) Full HD 1080p | 60 fps Britney Spears - Toxic (2004) HDTVRip 1080p | 60 fps
  1. Стаж:
    3 года 6 месяцев
    Сообщений:
    2290
    Пол:
    Мужской
    -Ellie Goulding - Love Me Like You Do (2015) WEBRip 1080p | 60 fps- -Информация о Клипе
    Исполнитель: Ellie Goulding
    Название: Love Me Like You Do
    Год выхода: 2015
    Продолжительность: 00:04:09-Файл
    Кодек: MPEG4/ISO/AVC/ H.264
    Формат: MKV
    Качество: WEBRip 1080p
    Видео: 1920 x 796 (2.412) at 60.000 fps ~5.0 Мбит/сек
    Аудио : MP3 | 320 Кбит/сек | 44.1 KHz | 2.0 channels

    MI

    Видео
    Идентификатор : 1
    Формат : AVC
    Формат/Информация : Advanced Video Codec
    Профиль формата : Main@L4.2
    Параметр CABAC формата : Да
    Параметр ReFrames формата : 3 кадра
    Идентификатор кодека : V_MPEG4/ISO/AVC
    Продолжительность : 4 м. 9 с.
    Битрейт : 4878 Кбит/сек
    Ширина : 1920 пикселей
    Высота : 796 пикселей
    Соотношение сторон : 2,40:1
    Режим частоты кадров : Постоянный
    Частота кадров : 60,000 кадров/сек
    Стандарт вещания : PAL
    Цветовое пространство : YUV
    Субдискретизация насыщенности : 4:2:0
    Битовая глубина : 8 бит
    Тип развёртки : Прогрессивная
    Бит/(Пиксели*Кадры) : 0.053
    Размер потока : 145 Мбайт (92%)
    Заголовок : www.60-fps.org
    Язык : English
    Default : Да
    Forced : Нет
    Основные цвета : BT.709
    Характеристики трансфера : BT.709
    Коэффициенты матрицы : BT.709
    colour_range : Limited
    Аудио
    Идентификатор : 2
    Формат : MPEG Audio
    Версия формата : Version 1
    Профиль формата : Layer 3
    Режим : Joint stereo
    Идентификатор кодека : A_MPEG/L3
    Идентификатор кодека/Подсказка : MP3
    Продолжительность : 4 м. 9 с.
    Вид битрейта : Постоянный
    Битрейт : 320 Кбит/сек
    Каналы : 2 канала
    Частота : 44,1 КГц
    Метод сжатия : С потерями
    Размер потока : 9,51 Мбайт (6%)
    Заголовок : MP3 320
    Библиотека кодирования : LAME3.99.5
    Default : Да
    Forced : Нет

    Релиз подготовлен 60 - fps

  2. Стаж:
    3 года 6 месяцев
    Сообщений:
    2290
    Пол:
    Мужской
    3153Спасибо.
    Пожалуйста ...
    04-Июл-2015 17:13 (спустя 19 часов)
  3. Стаж:
    2 года 5 месяцев
    Сообщений:
    1
    Пол:
    Не указан
    Thank you :D
    10-Ноя-2015 13:00 (спустя 4 месяца 5 дней)
  4. Стаж:
    2 года 4 месяца
    Сообщений:
    6
    Пол:
    Не указан
    3156
    3153Спасибо.
    Пожалуйста ...
    Anyone seeds this video fo me to download ?
    20-Янв-2016 05:56 (спустя 2 месяца 9 дней)
  5. Стаж:
    2 года 4 месяца
    Сообщений:
    6
    Пол:
    Не указан
    Thank you so much Смеюсь
    23-Янв-2016 04:09 (спустя 2 дня 22 часа)


Вы не можете начинать темы
Вы не можете отвечать на сообщения
Вы не можете редактировать свои сообщения
Вы не можете удалять свои сообщения
Вы не можете голосовать в опросах
Вы не можете прикреплять файлы к сообщениям
Вы не можете скачивать файлы