50 Cent - Ayo Technology ft. Justin Timberlake (2009) HD 1080p | 60 fps Britney Spears - Work Bitch (2013) HD 1080p | 60 fps Nicki Minaj - Anaconda (2014) BDRip 1080p | 60 fps Calvin Harris - Summer (2014) Full HD 1080p | 60 fps Iggy Azalea - Work (2013) HD 720p | 60 fps BLACKPINK | WEBRip 1080p | 60 fps Katy Perry - Part Of Me (2012) Full HD 1080p | 60 fps Pitbull feat. Chris Brown - International Love (2011) HDCam 720p | 60 fps
  1. Longevity:
    5 years 11 months
    Posts:
    2419
    Gender:
    Male
    -Ellie Goulding - Love Me Like You Do (2015) WEBRip 1080p | 60 fps- -Информация о Клипе
    Исполнитель: Ellie Goulding
    Название: Love Me Like You Do
    Год выхода: 2015
    Продолжительность: 00:04:09-Файл
    Кодек: MPEG4/ISO/AVC/ H.264
    Формат: MKV
    Качество: WEBRip 1080p
    Видео: 1920 x 796 (2.412) at 60.000 fps ~5.0 Мбит/сек
    Аудио : MP3 | 320 Кбит/сек | 44.1 KHz | 2.0 channels

    MI

    Видео
    Идентификатор : 1
    Формат : AVC
    Формат/Информация : Advanced Video Codec
    Профиль формата : Main@L4.2
    Параметр CABAC формата : Да
    Параметр ReFrames формата : 3 кадра
    Идентификатор кодека : V_MPEG4/ISO/AVC
    Продолжительность : 4 м. 9 с.
    Битрейт : 4878 Кбит/сек
    Ширина : 1920 пикселей
    Высота : 796 пикселей
    Соотношение сторон : 2,40:1
    Режим частоты кадров : Постоянный
    Частота кадров : 60,000 кадров/сек
    Стандарт вещания : PAL
    Цветовое пространство : YUV
    Субдискретизация насыщенности : 4:2:0
    Битовая глубина : 8 бит
    Тип развёртки : Прогрессивная
    Бит/(Пиксели*Кадры) : 0.053
    Размер потока : 145 Мбайт (92%)
    Заголовок : www.60-fps.org
    Язык : English
    Default : Да
    Forced : Нет
    Основные цвета : BT.709
    Характеристики трансфера : BT.709
    Коэффициенты матрицы : BT.709
    colour_range : Limited
    Аудио
    Идентификатор : 2
    Формат : MPEG Audio
    Версия формата : Version 1
    Профиль формата : Layer 3
    Режим : Joint stereo
    Идентификатор кодека : A_MPEG/L3
    Идентификатор кодека/Подсказка : MP3
    Продолжительность : 4 м. 9 с.
    Вид битрейта : Постоянный
    Битрейт : 320 Кбит/сек
    Каналы : 2 канала
    Частота : 44,1 КГц
    Метод сжатия : С потерями
    Размер потока : 9,51 Мбайт (6%)
    Заголовок : MP3 320
    Библиотека кодирования : LAME3.99.5
    Default : Да
    Forced : Нет

    Release was prepared by 60 - fps

  2. Longevity:
    5 years 11 months
    Posts:
    2419
    Gender:
    Male
    3153Спасибо.
    Пожалуйста ...
    04-Jul-2015 17:13 (after 19 hours)
  3. Longevity:
    4 years 10 months
    Posts:
    1
    Gender:
    Unknown
    Thank you :D
    10-Nov-2015 13:00 (after 4 months 5 days)
  4. Longevity:
    4 years 9 months
    Posts:
    6
    Gender:
    Unknown
    3156
    3153Спасибо.
    Пожалуйста ...
    Anyone seeds this video fo me to download ?
    20-Jan-2016 05:56 (after 2 months 9 days)
  5. Longevity:
    4 years 9 months
    Posts:
    6
    Gender:
    Unknown
    Thank you so much Смеюсь
    23-Jan-2016 04:09 (after 2 days 22 hours)


You cannot post new topics in this forum
You cannot reply to topics in this forum
You cannot edit your posts in this forum
You cannot delete your posts in this forum
You cannot vote in polls in this forum
You cannot attach files in this forum
You cannot download files in this forum