Philizz - Video Yearmix (2019) Full HD 1080p | 60 fps Britney Spears - Oops! I Did It Again Uncut (2009) HD 1080p | 60 fps Snoop Dogg - Wet (2011) Full HD 1080p | 60 fps Madonna - Rebel Heart Tour (2016) Blu-Ray Rip 1080p | 72 fps NK - ELEFANTE (2019) Full HD 1080p | 60 fps Jennifer Lopez - Booty ft. Iggy Azalea (2014) BDRip 1080p | 60 fps Katy Perry - Dark Horse (2014) Full HD 1080p | 60 fps Clean Bandit - Rockabye ft. Sean Paul & Anne-Marie (2016) WEBRip 1080p | 60 fps
  1. Longevity:
    6 years 7 months
    Posts:
    2414
    Gender:
    Male
    - Танец Элемент - Музыка (2016) Full HD 1080p | 60 fps Танец- -Информация о Клипе
    Исполнитель: Элемент
    Название: Музыка
    Год выхода: 2016
    Продолжительность: 00:03:48
    Описание:
    «Элемент» – новое и своего рода уникальное явление на российской поп-сцене. Нечасто встретишь дуэт, построенный по принципу «инь и ян». Люля (Юлия Витрук) и Паша Руденко – две противоположности, которых неудержимо тянет друг к другу в бесконечном поиске полного слияния.-Файл
    Кодек: MPEG4/ISO/AVC/H.264/[email protected]
    Формат: MKV
    Качество: Full HD 1080p | 60 fps
    Видео : 1920 x 800 (2.400) | 60.000 fps 20.0 Мбит/сек
    Аудио : DTS | 1413 Кбит/сек | 48.0 KHz | 2.0 channels

    MediaInfo

    Видео
    Идентификатор : 1
    Формат : AVC
    Формат/Информация : Advanced Video Codec
    Профиль формата : [email protected]
    Параметр CABAC формата : Да
    Параметр ReFrames формата : 3 кадра
    Идентификатор кодека : V_MPEG4/ISO/AVC
    Продолжительность : 3 м. 48 с.
    Вид битрейта : Переменный
    Битрейт : 19,3 Мбит/сек
    Максимальный битрейт : 20,0 Мбит/сек
    Ширина : 1920 пикселей
    Высота : 800 пикселей
    Соотношение сторон : 2,40:1
    Режим частоты кадров : Постоянный
    Частота кадров : 60,000 кадров/сек
    Стандарт вещания : NTSC
    Цветовое пространство : YUV
    Субдискретизация насыщенности : 4:2:0
    Битовая глубина : 8 бит
    Тип развёртки : Прогрессивная
    Бит/(Пиксели*Кадры) : 0.210
    Размер потока : 528 Мбайт (91%)
    Заголовок : www.60-fps.org
    Язык : English
    Default : Да
    Forced : Нет
    Основные цвета : BT.709
    Характеристики трансфера : BT.709
    Коэффициенты матрицы : BT.709
    colour_range : Limited
    DURATION : 00:03:48.928000000
    NUMBER_OF_FRAMES : 21462
    NUMBER_OF_BYTES : 40434408
    _STATISTICS_WRITING_APP : mkvmerge v7.6.0 ('Garden of Dreams') 32bit built on Feb 8 2015 12:51:39
    _STATISTICS_WRITING_DATE_UTC : 2016-11-14 16:59:39
    _STATISTICS_TAGS : BPS DURATION NUMBER_OF_FRAMES NUMBER_OF_BYTES
    Аудио
    Идентификатор : 2
    Формат : DTS
    Формат/Информация : Digital Theater Systems
    Режим : 16
    Параметр Endianness формата : Big
    Идентификатор кодека : A_DTS
    Продолжительность : 3 м. 48 с.
    Вид битрейта : Постоянный
    Битрейт : 1413 Кбит/сек
    Каналы : 2 канала
    Расположение каналов : Front: L R
    Частота : 48,0 КГц
    Битовая глубина : 16 бит
    Метод сжатия : С потерями
    Размер потока : 38,6 Мбайт (7%)
    Default : Да
    Forced : Нет

    Release was prepared by 60-fps.org



You cannot post new topics in this forum
You cannot reply to topics in this forum
You cannot edit your posts in this forum
You cannot delete your posts in this forum
You cannot vote in polls in this forum
You cannot attach files in this forum
You cannot download files in this forum