1. Longevity:
    4 years 10 months
    Posts:
    336
    Gender:
    Male
    Заказать фильмы, клипы или любое другое видео в качестве 60fps может каждый!!!
    Стоимость одного видео 50руб. !!!
    Пишите Талямба в личку, всё обсудите...
    Эльвира: Повелительница тьмы / Elvira: Mistress of the Dark (1988) BDRemux 1080p | 60 fps Информация
    Название: Эльвира: Повелительница тьмы
    Оригинальное название: Elvira: Mistress of the Dark
    Год выхода: 1988
    Жанр: Комедия, ужасы, мистика
    Режиссер: Джеймс Синьорелли
    В ролях: Кассандра Петерсон, Уильям Морган Шеппард, Дэниэл Грин, Сьюзэн Келлерман, Джефф Конэвей, Эди МакКлерг, Уильям Дюэл, Фил Рубенштейн, Ларри Флэш Дженкинс, Джозеф Ариас, Дамита Джо Фриман, Тресс МакНилл, Эдвина Мур, Ли МакЛафлин, Билл Сверинген, Чарльз Вулф, Уильям Дэнс, Уильям Корт, Шарон Хэйс, Билл Кейбл, Джон Парагон, Крис Камм, Скотт Моррис, Айра Хейден, Билл Мори, Пэт Кроуфорд Браун, Эллен Даннинг, Фрэнк Коллисон, Линн Мари Стюарт, Дерил Кэрролл, Мари Салливан, Джек Флетчер, Роберт Бенедетти, Курт Фуллер, Кейт Браун, Ив Смит, Рэли Бонд, Алекс Мано
    Страна: США
    Продолжительность: 1 ч. 36 м. 16 с.
    ----- Сюжет:
    На телезвезду Эльвиру неожиданно обрушивается наследство в виде тетушкиного поместья в маленьком городишке. Местное население при виде Эльвиры в сногсшибательном платье со сногсшибательным декольте испытывает настоящий шок. Женская половина обитателей города приходит в негодование, мужская — в восторг. Но Эльвира дает отпор не только местным ханжам, но и зловещему Князю Тьмы, окопавшемуся здесь же… ----- Файл
    Кодек: V_MPEG4/ISO/AVC
    Формат: MKV
    Качество: BDRemux 1080p | 60 fps
    Видео: 1920 x 1040 (1.85) | 59.940 fps | 35 Мбит/сек
    Аудио 1: Dolby Digital Audio / 5.1 / 48 kHz / 384 kbps | Профессиональный многоголосый («DVD Магия») | RUS |
    Аудио 2: Dolby Digital Audio / 2.0 / 48 kHz / 224 kbps | Профессиональный двухголосый («Варус-Видео») | RUS |
    Аудио 3: Dolby Digital Audio / 2.0 / 48 kHz / 224 kbps | Профессиональный одноголосый (Петербуржец) | RUS |
    Аудио 4: Dolby Digital Audio / 2.0 / 48 kHz / 192 kbps | Профессиональный одноголосый (Наталья Гурзо кинотеатральная озвучка) | RUS |
    Аудио 5: Dolby Digital Audio / 5.1 / 48 kHz / 384 kbps | Профессиональный многоголосый («Новий канал») | UKR |
    Аудио 6: DTS-HD Master Audio / 5.1 / 48 kHz / 3699 kbps / 24-bit | Оригинал | ENG |

    Субтитры: Русские, английские
    Главы: Есть

    MedifInfo

    Общее
    Уникальный идентификатор : 193466271619898207720572389198598905613 (0x918C3FA28E91D54C985A5048CE621F0D)
    Полное имя : D:\Movie\Эльвира - Повелительница тьмы (1988).mkv
    Формат : Matroska
    Версия формата : Version 2
    Размер файла : 27,0 Гбайт
    Продолжительность : 1 ч. 36 м.
    Общий поток : 40,1 Мбит/сек
    Название фильма : Эльвира - Повелительница тьмы (1988)
    Дата кодирования : UTC 2021-11-18 09:39:18
    Программа кодирования : mkvmerge v5.8.0 ('No Sleep / Pillow') built on Sep 2 2012 15:37:04
    Библиотека кодирования : libebml v1.2.3 + libmatroska v1.3.0
    Attachments : Poster.png
    Видео
    Идентификатор : 1
    Формат : AVC
    Формат/Информация : Advanced Video Codec
    Профиль формата : High@L4.1
    Параметр CABAC формата : Да
    Параметр ReFrames формата : 4 кадра
    Режим смешивания : Header stripping
    Идентификатор кодека : V_MPEG4/ISO/AVC
    Продолжительность : 1 ч. 36 м.
    Номинальный битрейт : 35,0 Мбит/сек
    Ширина : 1920 пикселей
    Высота : 1040 пикселей
    Соотношение сторон : 1,85:1
    Режим частоты кадров : Постоянный
    Частота кадров : 59,940 (60000/1001) кадров/сек
    Цветовое пространство : YUV
    Субдискретизация насыщенности : 4:2:0
    Битовая глубина : 8 бит
    Тип развёртки : Прогрессивная
    Бит/(Пиксели*Кадры) : 0.292
    Библиотека кодирования : x264 core 146 r2538 121396c
    Настройки программы : cabac=1 / ref=4 / deblock=1:0:0 / analyse=0x3:0x113 / me=umh / subme=8 / psy=1 / psy_rd=1.00:0.25 / mixed_ref=1 / me_range=32 / chroma_me=1 / trellis=1 / 8x8dct=1 / cqm=0 / deadzone=6,6 / fast_pskip=1 / chroma_qp_offset=-4 / threads=12 / lookahead_threads=3 / sliced_threads=0 / nr=0 / decimate=0 / interlaced=0 / bluray_compat=0 / constrained_intra=0 / bframes=3 / b_pyramid=2 / b_adapt=2 / b_bias=0 / direct=3 / weightb=1 / open_gop=0 / weightp=2 / keyint=600 / keyint_min=60 / scenecut=40 / intra_refresh=0 / rc_lookahead=50 / rc=2pass / mbtree=1 / bitrate=35000 / ratetol=1.0 / qcomp=0.80 / qpmin=0 / qpmax=69 / qpstep=4 / cplxblur=20.0 / qblur=0.5 / vbv_maxrate=50000 / vbv_bufsize=50000 / nal_hrd=none / filler=0 / ip_ratio=1.10 / aq=1:0.50
    Язык : English
    Default : Да
    Forced : Нет
    Аудио #1
    Идентификатор : 2
    Формат : AC-3
    Формат/Информация : Audio Coding 3
    Расширение режима : CM (complete main)
    Параметр Endianness формата : Big
    Режим смешивания : Header stripping
    Идентификатор кодека : A_AC3
    Продолжительность : 1 ч. 36 м.
    Вид битрейта : Постоянный
    Битрейт : 384 Кбит/сек
    Каналы : 6 каналов
    Расположение каналов : Front: L C R, Side: L R, LFE
    Частота : 48,0 КГц
    Частота кадров : 31,250 кадров/сек (1536 spf)
    Битовая глубина : 16 бит
    Метод сжатия : С потерями
    Размер потока : 264 Мбайт (1%)
    Заголовок : MVO (DVD Магия)
    Язык : Russian
    Default : Да
    Forced : Нет
    Аудио #2
    Идентификатор : 3
    Формат : AC-3
    Формат/Информация : Audio Coding 3
    Расширение режима : CM (complete main)
    Параметр Endianness формата : Big
    Режим смешивания : Header stripping
    Идентификатор кодека : A_AC3
    Продолжительность : 1 ч. 36 м.
    Вид битрейта : Постоянный
    Битрейт : 224 Кбит/сек
    Каналы : 2 канала
    Расположение каналов : Front: L R
    Частота : 48,0 КГц
    Частота кадров : 31,250 кадров/сек (1536 spf)
    Битовая глубина : 16 бит
    Метод сжатия : С потерями
    Размер потока : 154 Мбайт (1%)
    Заголовок : DVO ('Варус-Видео)
    Язык : Russian
    Default : Нет
    Forced : Нет
    Аудио #3
    Идентификатор : 4
    Формат : AC-3
    Формат/Информация : Audio Coding 3
    Расширение режима : CM (complete main)
    Параметр Endianness формата : Big
    Режим смешивания : Header stripping
    Идентификатор кодека : A_AC3
    Продолжительность : 1 ч. 36 м.
    Вид битрейта : Постоянный
    Битрейт : 224 Кбит/сек
    Каналы : 2 канала
    Расположение каналов : Front: L R
    Частота : 48,0 КГц
    Частота кадров : 31,250 кадров/сек (1536 spf)
    Битовая глубина : 16 бит
    Метод сжатия : С потерями
    Размер потока : 154 Мбайт (1%)
    Заголовок : AVO (Петербуржец)
    Язык : Russian
    Default : Нет
    Forced : Нет
    Аудио #4
    Идентификатор : 5
    Формат : AC-3
    Формат/Информация : Audio Coding 3
    Расширение режима : CM (complete main)
    Параметр Endianness формата : Big
    Режим смешивания : Header stripping
    Идентификатор кодека : A_AC3
    Продолжительность : 1 ч. 36 м.
    Вид битрейта : Постоянный
    Битрейт : 192 Кбит/сек
    Каналы : 2 канала
    Расположение каналов : Front: L R
    Частота : 48,0 КГц
    Частота кадров : 31,250 кадров/сек (1536 spf)
    Битовая глубина : 16 бит
    Метод сжатия : С потерями
    Размер потока : 132 Мбайт (0%)
    Заголовок : VO (Наталья Гурзо)
    Язык : Russian
    Default : Нет
    Forced : Нет
    Аудио #5
    Идентификатор : 6
    Формат : AC-3
    Формат/Информация : Audio Coding 3
    Расширение режима : CM (complete main)
    Параметр Endianness формата : Big
    Режим смешивания : Header stripping
    Идентификатор кодека : A_AC3
    Продолжительность : 1 ч. 36 м.
    Вид битрейта : Постоянный
    Битрейт : 384 Кбит/сек
    Каналы : 6 каналов
    Расположение каналов : Front: L C R, Side: L R, LFE
    Частота : 48,0 КГц
    Частота кадров : 31,250 кадров/сек (1536 spf)
    Битовая глубина : 16 бит
    Метод сжатия : С потерями
    Размер потока : 264 Мбайт (1%)
    Заголовок : MVO (Новий канал)
    Язык : Ukrainian
    Default : Нет
    Forced : Нет
    Аудио #6
    Идентификатор : 7
    Формат : DTS
    Формат/Информация : Digital Theater Systems
    Профиль формата : MA / Core
    Режим : 16
    Параметр Endianness формата : Big
    Режим смешивания : Header stripping
    Идентификатор кодека : A_DTS
    Продолжительность : 1 ч. 36 м.
    Вид битрейта : Переменный / Постоянный
    Битрейт : Неизвестно / 1509 Кбит/сек
    Каналы : 6 каналов
    Расположение каналов : Front: L C R, Side: L R, LFE
    Частота : 48,0 КГц
    Частота кадров : 93,750 кадра/сек (512 spf)
    Битовая глубина : 24 бит
    Метод сжатия : Без потерь / Lossy
    Язык : English
    Default : Нет
    Forced : Нет
    Текст #1
    Идентификатор : 8
    Формат : UTF-8
    Идентификатор кодека : S_TEXT/UTF8
    Идентификатор кодека/Информация : UTF-8 Plain Text
    Язык : Russian
    Default : Нет
    Forced : Нет
    Текст #2
    Идентификатор : 9
    Формат : UTF-8
    Идентификатор кодека : S_TEXT/UTF8
    Идентификатор кодека/Информация : UTF-8 Plain Text
    Язык : English
    Default : Нет
    Forced : Нет
    Меню
    00:00:00.000 : en:Chapter 01
    00:01:37.055 : en:Chapter 02
    00:07:20.231 : en:Chapter 03
    00:12:08.185 : en:Chapter 04
    00:20:51.917 : en:Chapter 05
    00:34:35.198 : en:Chapter 06
    00:55:32.370 : en:Chapter 07
    01:05:32.929 : en:Chapter 08
    01:21:18.331 : en:Chapter 09
    01:30:20.289 : en:Chapter 10

    Release was prepared by 60-fps.org



You cannot post new topics in this forum
You cannot reply to topics in this forum
You cannot edit your posts in this forum
You cannot delete your posts in this forum
You cannot vote in polls in this forum
You cannot attach files in this forum
You cannot download files in this forum