Богемская рапсодия /Bohemian Rhapsody (2018) BDRip 1080p | 60 fps Властелин колец: Трилогия / The Lord of the Rings: Trilogy (2001-2003) BDRip-AVC | Extended Cut | 60 fps Апгрейд / Upgrade (2018) BDRip 1080p | 60 fps Альфа / Alpha (2018) BDRip 720p | 60 fps Проклятие монахини / The Nun (2018) BDRip 720p | 60 fps 22 мили / Mile 22 (2018) BDRip 720p | 60 fps Кристофер Робин / Christopher Robin (2018) BDRip 1080p | 60 fps Маугли / Mowgli (2018) BDRip 720p | 60 fps
  1. Longevity:
    4 years 7 months
    Posts:
    2411
    Gender:
    Male
    «Где кончается реальность... и начинается игра?»- Информация
    Название: Экзистенция
    Оригинальное название: eXistenZ
    Год выхода: 1999
    Жанр: фантастика, триллер
    Режиссер: Дэвид Кроненберг
    Сценарий: Дэвид Кроненберг
    Продюсер: Дэвид Кроненберг, Андрас Хамори, Роберт Лантош
    В ролях: Дженнифер Джейсон Ли, Джуд Лоу, Иэн Холм, Уиллем Дефо, Дон МакКеллар, Каллум Кит Ренни, Кристофер Экклстон, Сара Полли, Роберт А. Силверман, Оскар Хсю
    --Сюжет:
    На закрытой презентации игры виртуальной реальности под названием «Экзистенция» на ее великолепную создательницу Аллегру Гелла совершает покушение сумасшедший убийца, который хочет уничтожить и ее игру! Вынужденная спасаться бегством, Аллегра подключает младшего сотрудника к тестированию поврежденной системы тем, что … убеждает его сыграть в Экзистенцию вместе с ней! События разворачиваются так, что угроза их реальной жизни пересекается с виртуальными событиями в игре.
    - Страна: Канада, Великобритания
    Продолжительность: 01:37:10

    Файл
    Кодек: MPEG4/ISO/AVC/H.264
    Формат: MKV
    Качество: BDRip 1080p | 60 fps
    Видео: 1920 x 1080 (1.778) | 59.940 fps | 23.0 Мбит/сек
    Аудио 1: AC3 | 5.1 | 48 kHz | 384 kbps | 16 bit | Профессиональный двухголосый закадровый - Cinema Prestige |
    Аудио 2: AC3 | 5.1 | 48 kHz | 384 kbps | 16 bit | Авторский одноголосый закадровый - А. Гаврилов |
    Аудио 3: AC3 | 5.1 | 48 kHz | 384 kbps | 16 bit | Eng |
    Субтитры: Русские (2 вида), английские

    MedifInfo

    Видео
    Идентификатор : 1
    Формат : AVC
    Формат/Информация : Advanced Video Codec
    Профиль формата : High@L4.1
    Параметр CABAC формата : Да
    Параметр ReFrames формата : 4 кадра
    Идентификатор кодека : V_MPEG4/ISO/AVC
    Продолжительность : 1 ч. 37 м.
    Битрейт : 23,0 Мбит/сек
    Ширина : 1920 пикселей
    Высота : 1080 пикселей
    Соотношение сторон : 16:9
    Режим частоты кадров : Постоянный
    Частота кадров : 59,880 кадров/сек
    Частота кадров в оригинале : 59,940 кадров/сек
    Цветовое пространство : YUV
    Субдискретизация насыщенности : 4:2:0
    Битовая глубина : 8 бит
    Тип развёртки : Прогрессивная
    Бит/(Пиксели*Кадры) : 0.185
    Размер потока : 15,2 Гбайт (93%)
    Заголовок : www.60-fps.org
    Библиотека кодирования : x264 core 148 r2638 7599210
    Настройки программы : cabac=1 / ref=4 / deblock=1:-3:-3 / analyse=0x3:0x113 / me=umh / subme=8 / psy=1 / psy_rd=1.00:0.25 / mixed_ref=1 / me_range=32 / chroma_me=1 / trellis=1 / 8x8dct=1 / cqm=0 / deadzone=6,6 / fast_pskip=1 / chroma_qp_offset=-4 / threads=12 / lookahead_threads=2 / sliced_threads=0 / nr=0 / decimate=0 / interlaced=0 / bluray_compat=0 / constrained_intra=0 / bframes=3 / b_pyramid=2 / b_adapt=2 / b_bias=0 / direct=3 / weightb=1 / open_gop=0 / weightp=2 / keyint=599 / keyint_min=59 / scenecut=40 / intra_refresh=0 / rc_lookahead=50 / rc=2pass / mbtree=1 / bitrate=22999 / ratetol=1.0 / qcomp=0.80 / qpmin=0 / qpmax=69 / qpstep=4 / cplxblur=20.0 / qblur=0.5 / vbv_maxrate=62500 / vbv_bufsize=78125 / nal_hrd=none / filler=0 / ip_ratio=1.10 / aq=1:0.50
    Default : Да
    Forced : Нет
    Аудио #1
    Идентификатор : 2
    Формат : AC-3
    Формат/Информация : Audio Coding 3
    Расширение режима : CM (complete main)
    Параметр Endianness формата : Big
    Идентификатор кодека : A_AC3
    Продолжительность : 1 ч. 37 м.
    Вид битрейта : Постоянный
    Битрейт : 384 Кбит/сек
    Каналы : 6 каналов
    Расположение каналов : Front: L C R, Side: L R, LFE
    Частота : 48,0 КГц
    Битовая глубина : 16 бит
    Метод сжатия : С потерями
    Размер потока : 267 Мбайт (2%)
    Заголовок : Профессиональный двухголосый закадровый - Cinema Prestige
    Язык : Russian
    Default : Да
    Forced : Нет
    Аудио #2
    Идентификатор : 3
    Формат : AC-3
    Формат/Информация : Audio Coding 3
    Расширение режима : CM (complete main)
    Параметр Endianness формата : Big
    Идентификатор кодека : A_AC3
    Продолжительность : 1 ч. 37 м.
    Вид битрейта : Постоянный
    Битрейт : 384 Кбит/сек
    Каналы : 6 каналов
    Расположение каналов : Front: L C R, Side: L R, LFE
    Частота : 48,0 КГц
    Битовая глубина : 16 бит
    Метод сжатия : С потерями
    Размер потока : 267 Мбайт (2%)
    Заголовок : Авторский одноголосый закадровый - А. Гаврилов
    Язык : Russian
    Default : Нет
    Forced : Нет
    Аудио #3
    Идентификатор : 4
    Формат : AC-3
    Формат/Информация : Audio Coding 3
    Расширение режима : CM (complete main)
    Параметр Endianness формата : Big
    Идентификатор кодека : A_AC3
    Продолжительность : 1 ч. 37 м.
    Вид битрейта : Постоянный
    Битрейт : 384 Кбит/сек
    Каналы : 6 каналов
    Расположение каналов : Front: L C R, Side: L R, LFE
    Частота : 48,0 КГц
    Битовая глубина : 16 бит
    Метод сжатия : С потерями
    Размер потока : 267 Мбайт (2%)
    Заголовок : English
    Язык : English
    Default : Нет
    Forced : Нет
    Текст #1
    Идентификатор : 5
    Формат : UTF-8
    Идентификатор кодека : S_TEXT/UTF8
    Идентификатор кодека/Информация : UTF-8 Plain Text
    Язык : Russian
    Default : Нет
    Forced : Нет
    Текст #2
    Идентификатор : 6
    Формат : UTF-8
    Идентификатор кодека : S_TEXT/UTF8
    Идентификатор кодека/Информация : UTF-8 Plain Text
    Язык : Russian
    Default : Нет
    Forced : Нет
    Текст #3
    Идентификатор : 7
    Формат : UTF-8
    Идентификатор кодека : S_TEXT/UTF8
    Идентификатор кодека/Информация : UTF-8 Plain Text
    Язык : English
    Default : Нет
    Forced : Нет
    Меню
    00:00:00.000 : en:Product Testing
    00:05:58.958 : en:Marked for Death
    00:13:15.828 : en:Never Played
    00:20:13.212 : en:Getting Ported
    00:25:21.887 : en:Bad Install
    00:33:33.311 : en:Ski Club Operation
    00:38:30.641 : en:Excited Bio-port
    00:46:40.931 : en:Playing the Game
    00:54:33.470 : en:Trained by the Best
    01:00:48.544 : en:Game on Pause
    01:06:39.862 : en:The Special
    01:12:37.653 : en:Realists
    01:19:08.577 : en:Infected
    01:26:55.677 : en:Defecting
    01:33:59.967 : en:TransCendenZ
    Фильм сделан по заказу пользователя Dominic Fuentes

    Release was prepared by 60 - fps

  2. Longevity:
    2 years 9 months
    Posts:
    858
    Gender:
    Male
    Заказчику и релизеру РЕСПЕКТ... ! Да
    09-May-2017 08:44 (after 2 minutes)
  3. Longevity:
    2 years 3 months
    Posts:
    2
    Gender:
    Unknown
    Спасибо большое. Дайте скорости, а то качается с мизерной скоростью 10-20 килобит, и потом, резко на нуль скорость падает. Пятый час уже качаю, а скачалось всего 1%.
    Интересно, кто у кого идею погружения в сон/игру внутрь сна/игры, внутри сна/игры заимствовал - Кроненберг у Нолана, либо Нолан у Кроненберга ("начало", "экзистенция")
    09-May-2017 17:47 (after 9 hours)
  4. Longevity:
    3 years 7 months
    Posts:
    9
    Gender:
    Male
    Я уже 2 дня качаю и все не докачаю.
    27-Jun-2017 20:58 (after 1 month 18 days)
  5. Longevity:
    2 years 9 months
    Posts:
    858
    Gender:
    Male
    seiblokhin, прости дружище,но к сожалению мы пока работаем по принципу "файлобменника" а не по принципу серверного хранилища,где стоят тумбы-юмбы в которых находиться по 200 серверных дисков и которые могут раздавать по 800 терабайт в секунду на любой континент... Краснею
    если нет ребят на раздаче,то значит не как нельзя скачать этот фильм,прости... !
    P.S. Я вон сам недавно крякнул свои диски и по новой востонавливал 8 терабайт и то,не все фильмы смог загрузить по новой... !
    27-Jun-2017 22:10 (after 1 hour 11 minutes)
  6. Longevity:
    3 years 7 months
    Posts:
    9
    Gender:
    Male
    8054
    P.S. Я вон сам недавно крякнул свои диски и по новой востонавливал 8 терабайт и то,не все фильмы смог загрузить по новой... !
    Эххх будим ждать Улыбаюсь
    29-Jun-2017 08:23 (after 1 day 10 hours)
  7. Longevity:
    1 month 6 days
    Posts:
    3
    Gender:
    Unknown
    Раздача умерла?(
    21-Apr-2019 03:38 (after 1 year 9 months)
  8. Longevity:
    2 years 9 months
    Posts:
    858
    Gender:
    Male
    10740Раздача умерла?(
    Скорее всего что умерла,у меня нет её к сожалению на серверах...
    21-Apr-2019 04:37 (after 59 minutes)
  9. Longevity:
    1 month 6 days
    Posts:
    3
    Gender:
    Unknown
    10741
    10740Раздача умерла?(
    Скорее всего что умерла,у меня нет её к сожалению на серверах...
    nooOOOoo!
    05-May-2019 01:28 (after 13 days)


You cannot post new topics in this forum
You cannot reply to topics in this forum
You cannot edit your posts in this forum
You cannot delete your posts in this forum
You cannot vote in polls in this forum
You cannot attach files in this forum
You cannot download files in this forum