[Цитировать]
Kryl

«Мир, где эмоции караются смертью»- Информация
Название: Эквилибриум
Оригинальное название: Equilibrium
Год выхода: 2002
Жанр: Фантастика, боевик, детектив, приключения
Режиссер: Курт Уиммер
Сценарий: Курт Уиммер
Продюсер: Лукас Фостер, Сью Баден-Поуелл, Ян де Бонт
В ролях: Кристиан Бэйл, Шон Бин, Эмили Уотсон, Тэй Диггз, Энгус Макфадьен, Шон Пертуи, Уильям Фихтнер, Джон Кеог, Дэвид Барраш, Дирк Мартенс, Кристиан Карманн, Мэттью Харбор, Эмили Сьеверт, Доминик Пёрселл, Майк Смит, Флориан Фитц, Дэнни Ли Кларк, Франческо Кабрас, Курт Уиммер, Анатоль Таубман, Брайан Конли, Алекса Саммер, Брайан В. Кук, Мехмет Куртулус, Дэвид Хеммингс, Клаус Шиндл
--Сюжет:
Действие происходит в будущем, когда люди лишены возможности выражать какие-то эмоции, потому, что они… запрещены. Это — та цена, которую человечество платит за устранение из своей жизни войны. Теперь книги, искусство и музыка находятся вне закона. А любое чувство — уже преступление, наказуемое смертью.
Для проведения в жизнь существующего правила используется принудительное применение лекарства «прозиум». Правительственный агент Джон Престон борется с теми, кто нарушает правила. В один прекрасный момент он забывает принять очередную дозу лекарства и с ним происходит духовное превращение, что приводит его к противоречию с самим собой и с начальством.
- - Страна: США
Продолжительность: 01:46:50
-- Файл
Кодек: MPEG4/ISO/AVC H.264
Формат: MKV
Качество: BDRip 720p (исходник Blu-ray Disc)
Видео: 1280x720 | 59.940 fps | 8.2 Мбит/сек
Аудио 1: AC3 | 5.1 | 48 kHz | 640 kbps | 16 bit | Дублированный |
Аудио 2: AC3 | 5.1 | 48 kHz | 640 kbps | 16 bit | ENG |

MedifInfo

Video
ID : 1
Format : AVC
Format/Info : Advanced Video Codec
Format profile : High@L4.1
Format settings, CABAC : Yes
Format settings, ReFrames : 9 frames
Codec ID : V_MPEG4/ISO/AVC
Duration : 1h 46mn
Bit rate : 8 203 Kbps
Width : 1 280 pixels
Height : 720 pixels
Display aspect ratio : 16:9
Frame rate mode : Constant
Frame rate : 59.880 fps
Original frame rate : 59.940 fps
Color space : YUV
Chroma subsampling : 4:2:0
Bit depth : 8 bits
Scan type : Progressive
Bits/(Pixel*Frame) : 0.149
Stream size : 6.12 GiB (85%)
Title : Эквилибриум.(2002).BDRip.720p.[envy].[60fps]
Writing library : x264 core 146 r2538 121396c
Encoding settings : cabac=1 / ref=9 / deblock=1:0:0 / analyse=0x3:0x113 / me=umh / subme=10 / psy=1 / psy_rd=1.00:0.00 / mixed_ref=1 / me_range=24 / chroma_me=1 / trellis=2 / 8x8dct=1 / cqm=0 / deadzone=21,11 / fast_pskip=0 / chroma_qp_offset=-2 / threads=12 / lookahead_threads=1 / sliced_threads=0 / nr=0 / decimate=1 / interlaced=0 / bluray_compat=0 / constrained_intra=0 / bframes=5 / b_pyramid=2 / b_adapt=2 / b_bias=0 / direct=3 / weightb=1 / open_gop=0 / weightp=2 / keyint=250 / keyint_min=25 / scenecut=40 / intra_refresh=0 / rc_lookahead=40 / rc=crf / mbtree=0 / crf=18.0 / qcomp=0.60 / qpmin=0 / qpmax=69 / qpstep=4 / vbv_maxrate=14000 / vbv_bufsize=14000 / crf_max=0.0 / nal_hrd=none / filler=0 / ip_ratio=1.40 / pb_ratio=1.30 / aq=3:1.00
Language : English
Default : Yes
Forced : No
Audio #1
ID : 2
Format : AC-3
Format/Info : Audio Coding 3
Mode extension : CM (complete main)
Format settings, Endianness : Big
Codec ID : A_AC3
Duration : 1h 46mn
Bit rate mode : Constant
Bit rate : 640 Kbps
Channel(s) : 6 channels
Channel positions : Front: L C R, Side: L R, LFE
Sampling rate : 48.0 KHz
Compression mode : Lossy
Stream size : 489 MiB (7%)
Title : Dub
Language : Russian
Default : Yes
Forced : Yes
Audio #2
ID : 3
Format : AC-3
Format/Info : Audio Coding 3
Mode extension : CM (complete main)
Format settings, Endianness : Big
Codec ID : A_AC3
Duration : 1h 46mn
Bit rate mode : Constant
Bit rate : 640 Kbps
Channel(s) : 6 channels
Channel positions : Front: L C R, Side: L R, LFE
Sampling rate : 48.0 KHz
Compression mode : Lossy
Stream size : 489 MiB (7%)
Title : Eng
Language : English
Default : No
Forced : No
Text #1
ID : 4
Format : UTF-8
Codec ID : S_TEXT/UTF8
Codec ID/Info : UTF-8 Plain Text
Title : Rus full
Language : Russian
Default : No
Forced : No
Text #2
ID : 5
Format : UTF-8
Codec ID : S_TEXT/UTF8
Codec ID/Info : UTF-8 Plain Text
Title : Eng full
Language : English
Default : No
Forced : No
Menu
00:00:00.000 : en:Man's Inhumanity to Man
00:07:29.906 : en:An Unfeeling Society
00:18:12.883 : en:The Prodigal Cleric
00:24:11.199 : en:A Heavy Cost
00:30:07.263 : en:A New Morning
00:36:50.166 : en:Existence and Purpose
00:46:06.555 : en:Awakening Emotions
00:53:40.425 : en:Signs of Remorse
01:02:20.361 : en:Doubting Father?
01:09:31.207 : en:A Big Mistake
01:11:40.671 : en:"He's A Sense Offender!"
01:19:00.235 : en:Questions for Mary
01:27:00.131 : en:Contacting the Resistance
01:34:23.157 : en:Incineration
01:40:17.386 : en:Nothing to Hide

[Цитировать]
maxxximka

мощный фильм

[Цитировать]
HANNIBAL_68

3924мощный фильм
на все 100%
 
Показать сообщения:    

Текущее время: 08-Дек 08:59

Часовой пояс: UTC + 3


Вы не можете начинать темы
Вы не можете отвечать на сообщения
Вы не можете редактировать свои сообщения
Вы не можете удалять свои сообщения
Вы не можете голосовать в опросах
Вы не можете прикреплять файлы к сообщениям
Вы не можете скачивать файлы