[Цитировать]
Kryl

Экстрасенсы / Solace (2015) BDRip 720p | 60 fps- Информация
Название: Экстрасенсы
Оригинальное название: Solace
Год выхода: 2015
Жанр: триллер, детектив
Режиссер: Афонсо Пойарт
Сценарий: Шон Бэйли, Тед Гриффин
Продюсер: Томас Огсбергер, Клаудия Блюмхубер, Маттиас Эмке
В ролях: Энтони Хопкинс, Джеффри Дин Морган, Колин Фаррелл, Эбби Корниш, Марли Шелтон, Джанин Тёрнер, Ксандер Беркли, Кенни Джонсон, Хосе Пабло Кантилльо, Джошуа Клоуз
--Сюжет:
Джон Клэнси, экстрасенс, много раз помогавший ФБР в расследованиях неразрешимых преступлений, сталкивается с самым опасным делом в своей жизни. Его способность видеть прошлое оказывается бессильна перед новым противником — хладнокровным убийцей, который способен предвидеть будущее. Теперь, чтобы остановить серию убийств, Джон должен вступить в неравную схватку с расчётливым маньяком и найти способ загнать в ловушку того, кто всегда на десять шагов впереди.- Страна: США
Продолжительность: 01:41:12

Файл
Кодек: MPEG4/ISO/AVC H.264
Формат: MKV
Качество: BDRip 720p | 60 fps
Видео: 1280 x 534 (2.397) | 59.940 fps | 10.0 Мбит/сек
Аудио 1: AC3 | 5.1 | 48 kHz | 384 kbps | 16 bit | Дубляж (iTunes) |
Аудио 2: AC3 | 5.1 | 48 kHz | 640 kbps | 16 bit | ENG |

MedifInfo

Видео
Идентификатор : 1
Формат : AVC
Формат/Информация : Advanced Video Codec
Профиль формата : High@L4.1
Параметр CABAC формата : Да
Параметр ReFrames формата : 3 кадра
Параметр GOP формата : M=3, N=72
Идентификатор кодека : V_MPEG4/ISO/AVC
Продолжительность : 1 ч. 41 м.
Вид битрейта : Переменный
Битрейт : 9548 Кбит/сек
Максимальный битрейт : 10000 Кбит/сек
Ширина : 1280 пикселей
Высота : 534 пикселя
Соотношение сторон : 2,40:1
Режим частоты кадров : Постоянный
Частота кадров : 59,880 кадров/сек
Частота кадров в оригинале : 59,940 кадров/сек
Стандарт вещания : PAL
Цветовое пространство : YUV
Субдискретизация насыщенности : 4:2:0
Битовая глубина : 8 бит
Тип развёртки : Прогрессивная
Бит/(Пиксели*Кадры) : 0.233
Размер потока : 6,75 Гбайт (89%)
Заголовок : www.60-fps.org
Язык : English
Default : Да
Forced : Нет
Основные цвета : BT.601 NTSC
Характеристики трансфера : BT.601
Коэффициенты матрицы : BT.601
colour_range : Limited
Аудио #1
Идентификатор : 2
Формат : AC-3
Формат/Информация : Audio Coding 3
Расширение режима : CM (complete main)
Параметр Endianness формата : Big
Идентификатор кодека : A_AC3
Продолжительность : 1 ч. 41 м.
Вид битрейта : Постоянный
Битрейт : 384 Кбит/сек
Каналы : 6 каналов
Расположение каналов : Front: L C R, Side: L R, LFE
Частота : 48,0 КГц
Битовая глубина : 16 бит
Метод сжатия : С потерями
Размер потока : 278 Мбайт (4%)
Заголовок : Дубляж (iTunes
Default : Да
Forced : Нет
Аудио #2
Идентификатор : 3
Формат : AC-3
Формат/Информация : Audio Coding 3
Расширение режима : CM (complete main)
Параметр Endianness формата : Big
Идентификатор кодека : A_AC3
Продолжительность : 1 ч. 41 м.
Вид битрейта : Постоянный
Битрейт : 640 Кбит/сек
Каналы : 6 каналов
Расположение каналов : Front: L C R, Side: L R, LFE
Частота : 48,0 КГц
Битовая глубина : 16 бит
Метод сжатия : С потерями
Размер потока : 463 Мбайт (6%)
Заголовок : English
Язык : English
Default : Нет
Forced : Нет
Меню
00:00:00.000 : en:Chapter 01
00:09:13.428 : en:Chapter 02
00:16:38.289 : en:Chapter 03
00:20:26.475 : en:Chapter 04
00:30:19.860 : en:Chapter 05
00:39:57.562 : en:Chapter 06
00:46:02.468 : en:Chapter 07
01:00:26.748 : en:Chapter 08
01:04:05.800 : en:Chapter 09
01:11:37.126 : en:Chapter 10
01:18:46.639 : en:Chapter 11
01:22:42.541 : en:Chapter 12

Релиз подготовлен 60 - fps

[60-fps.org].t1997.torrent
Торрент: Зарегистрирован [ 2016-05-12 19:47 ] · 14302496C41616DE5D1F112A782AFCF8C8007775

Скачать .torrent

Скачать

19 KB

Статус: проверено
Скачан: 58 раз
Поблагодарили:
Размер: 7,63 GB
 

[Цитировать]
MeZZAPT

хотел сделать Подмигиваю а уже есть Привет

[Цитировать]
Kryl

Улыбаюсь

[Цитировать]
ENIGMA

Большое Спасибо Овации
 
Показать сообщения:    

Текущее время: 22-Фев 04:39

Часовой пояс: UTC + 3


Вы не можете начинать темы
Вы не можете отвечать на сообщения
Вы не можете редактировать свои сообщения
Вы не можете удалять свои сообщения
Вы не можете голосовать в опросах
Вы не можете прикреплять файлы к сообщениям
Вы можете скачивать файлы