[Цитировать]
Kryl

«Изменишь одно, изменится все»- Информация
Название: Эффект бабочки
Оригинальное название: The Butterfly Effect
Год выхода: 2004
Жанр: фантастика, триллер, драма, детектив
Режиссер: Эрик Бресс, Дж. Макки Грубер
Сценарий: Дж. Макки Грубер, Эрик Бресс
Продюсер: Крис Бендер, А.Дж. Дикс, Энтони Рулен
В ролях: Эштон Катчер, Эми Смарт, Мелора Уолтерс, Элден Хенсон, Уильям Ли Скотт, Джон Патрик Амедори, Ирен Горовая, Кевин Шмидт, Джесси Джеймс, Логан Лерман
--Сюжет:
Мальчик Эван перенял от своего отца-психопата, ныне запертого в доме для умалишённых, странную болезнь — он не помнит некоторых эпизодов своей жизни, причем в эти моменты происходили довольно странные, а то и ужасные, события. Возмужав и поступив в колледж, Эван делает удивительное открытие. Читая дневники, которые он писал в детстве по совету врача, Эван может возвращаться в детство и своими действиями изменять будущее.- Страна: США, Канада
Продолжительность: 01:53:31

Файл
Кодек: MPEG4/ISO/AVC H.264
Формат: MKV
Качество: BDRip 720p | 60 fps
Видео: 1280 x 720 (1.778) | 59.940 fps | 10.0 Мбит/сек
Аудио 1: AC3 | 5.1 | 48 kHz | 384 kbps | 16 bit | Дубляж |
Аудио 2: AC3 | 5.1 | 48 kHz | 640 kbps | 16 bit | Авторский одноголосый - А.Дасевич |
Аудио 3: AC3 | 5.1 | 48 kHz | 640 kbps | 16 bit | ENG |
[ Субтитры: Русские (Tycoon), Английские

MedifInfo

Видео
Идентификатор : 1
Формат : AVC
Формат/Информация : Advanced Video Codec
Профиль формата : High@L4.1
Параметр CABAC формата : Да
Параметр ReFrames формата : 5 кадров
Идентификатор кодека : V_MPEG4/ISO/AVC
Продолжительность : 1 ч. 53 м.
Битрейт : 9999 Кбит/сек
Ширина : 1280 пикселей
Высота : 720 пикселей
Соотношение сторон : 16:9
Режим частоты кадров : Постоянный
Частота кадров : 59,880 кадров/сек
Частота кадров в оригинале : 59,940 кадров/сек
Цветовое пространство : YUV
Субдискретизация насыщенности : 4:2:0
Битовая глубина : 8 бит
Тип развёртки : Прогрессивная
Бит/(Пиксели*Кадры) : 0.181
Размер потока : 7,74 Гбайт (84%)
Заголовок : www.60-fps.org
Библиотека кодирования : x264 core 148 r2638 7599210
Настройки программы : cabac=1 / ref=5 / deblock=1:-3:-3 / analyse=0x3:0x113 / me=umh / subme=8 / psy=1 / psy_rd=1.00:0.25 / mixed_ref=1 / me_range=32 / chroma_me=1 / trellis=1 / 8x8dct=1 / cqm=0 / deadzone=6,6 / fast_pskip=1 / chroma_qp_offset=-4 / threads=12 / lookahead_threads=2 / sliced_threads=0 / nr=0 / decimate=0 / interlaced=0 / bluray_compat=0 / constrained_intra=0 / bframes=3 / b_pyramid=2 / b_adapt=2 / b_bias=0 / direct=3 / weightb=1 / open_gop=0 / weightp=2 / keyint=599 / keyint_min=59 / scenecut=40 / intra_refresh=0 / rc_lookahead=50 / rc=2pass / mbtree=1 / bitrate=9999 / ratetol=1.0 / qcomp=0.80 / qpmin=0 / qpmax=69 / qpstep=4 / cplxblur=20.0 / qblur=0.5 / vbv_maxrate=62500 / vbv_bufsize=78125 / nal_hrd=none / filler=0 / ip_ratio=1.10 / aq=1:0.50
Default : Да
Forced : Нет
Аудио #1
Идентификатор : 2
Формат : AC-3
Формат/Информация : Audio Coding 3
Расширение режима : CM (complete main)
Параметр Endianness формата : Big
Идентификатор кодека : A_AC3
Продолжительность : 1 ч. 53 м.
Вид битрейта : Постоянный
Битрейт : 384 Кбит/сек
Каналы : 6 каналов
Расположение каналов : Front: L C R, Side: L R, LFE
Частота : 48,0 КГц
Битовая глубина : 16 бит
Метод сжатия : С потерями
Размер потока : 312 Мбайт (3%)
Заголовок : AC3 5.1 @ 384 kbps - DUB
Язык : Russian
Default : Да
Forced : Нет
Аудио #2
Идентификатор : 3
Формат : AC-3
Формат/Информация : Audio Coding 3
Расширение режима : CM (complete main)
Параметр Endianness формата : Big
Идентификатор кодека : A_AC3
Продолжительность : 1 ч. 53 м.
Вид битрейта : Постоянный
Битрейт : 640 Кбит/сек
Каналы : 6 каналов
Расположение каналов : Front: L C R, Side: L R, LFE
Частота : 48,0 КГц
Битовая глубина : 16 бит
Метод сжатия : С потерями
Размер потока : 520 Мбайт (5%)
Заголовок : AC3 5.1 @ 640 kbps - AVO, А.Дасевич
Язык : Russian
Default : Нет
Forced : Нет
Аудио #3
Идентификатор : 4
Формат : AC-3
Формат/Информация : Audio Coding 3
Расширение режима : CM (complete main)
Параметр Endianness формата : Big
Идентификатор кодека : A_AC3
Продолжительность : 1 ч. 53 м.
Вид битрейта : Постоянный
Битрейт : 640 Кбит/сек
Каналы : 6 каналов
Расположение каналов : Front: L C R, Side: L R, LFE
Частота : 48,0 КГц
Битовая глубина : 16 бит
Метод сжатия : С потерями
Размер потока : 520 Мбайт (5%)
Заголовок : AC3 5.1 @ 640 kbps - Original
Язык : English
Default : Нет
Forced : Нет
Текст #1
Идентификатор : 5
Формат : UTF-8
Идентификатор кодека : S_TEXT/UTF8
Идентификатор кодека/Информация : UTF-8 Plain Text
Заголовок : Full
Язык : Russian
Default : Нет
Forced : Нет
Текст #2
Идентификатор : 6
Формат : UTF-8
Идентификатор кодека : S_TEXT/UTF8
Идентификатор кодека/Информация : UTF-8 Plain Text
Заголовок : Full
Язык : English
Default : Нет
Forced : Нет
Меню
00:00:00.000 : en:en:You have to see this
00:06:28.596 : en:en:Secrets
00:11:16.676 : en:en:Blackouts
00:16:50.009 : en:en:Tommy's revenge
00:25:07.422 : en:en:Memory research
00:31:40.481 : en:en:Remembering
00:39:27.448 : en:en:Kaylee
00:46:14.563 : en:en:Rewind: Kaylee
00:57:49.966 : en:en:A new life
01:04:58.769 : en:en:Prisoner
01:14:49.443 : en:en:Rewind: Lenny
01:23:12.529 : en:en:You were happy once
01:28:50.950 : en:en:Rewind: Evan
01:37:17.039 : en:en:Destroy the blockbuster
01:43:09.141 : en:en:Last attempt
01:47:55.760 : en:en:End credits
Киношка сделана по заказу пользователя
вячеслав

Релиз подготовлен 60 - fps

 
Показать сообщения:    

Текущее время: 10-Дек 19:37

Часовой пояс: UTC + 3


Вы не можете начинать темы
Вы не можете отвечать на сообщения
Вы не можете редактировать свои сообщения
Вы не можете удалять свои сообщения
Вы не можете голосовать в опросах
Вы не можете прикреплять файлы к сообщениям
Вы не можете скачивать файлы