План побега 2 / Escape Plan 2: Hades (2018) BDRip 720p | 60 fps Властелин колец: Трилогия / The Lord of the Rings: Trilogy (2001-2003) BDRip-AVC | Extended Cut | 60 fps Красный воробей / Red Sparrow (2018) BDRip 720p | 60 fps Ограбление в ураган / The Hurricane Heist (2018) BDRip 720p | 60 fps Жажда смерти / Death Wish (2018) BDRip 1080p | 60 fps Тихое место / A Quiet Place (2018) BDRip 720p | 60 fps Мир будущего / Future World (2018) BDRip 1080p | 60 fps Апгрейд / Upgrade (2018) BDRip 1080p | 60 fps
  1. Стаж:
    4 года 1 месяц
    Сообщений:
    2427
    Пол:
    Мужской
    Информация
    Название: Дыши во мгле
    Оригинальное название: Dans la brume
    Год выхода: 2018
    Жанр: Фантастика, триллер, приключения
    Режиссер: Дэниэл Роби
    Сценарий: Гийом Леман, Джимми Бемон
    Продюсер: Гийом Колбок, Николя Дюваль-Адассовски
    В ролях: Ромен Дюрис, Ольга Куриленко, Фантина Ардуин, Мишель Робен, Анна Гейлор, Эрья Малатье, Алексис Маненти, Морис Антони, Робин Бард

    Сюжет:
    После внезапного землетрясения туман, убивающий все живое, окутывает Париж. Немногие из оставшихся в живых забираются за чистым воздухом на крыши зданий: без связи, воды и еды они все еще надеются на помощь. Анна и Мэттью пойдут на все, чтобы спасти свою дочь, но для этого им придется спуститься в самую гущу опасной мглы.

    Страна: Франция, Канада
    Продолжительность: 01:29:01

    Файл
    Кодек: H.264
    Формат: MKV
    Качество: BDRip 720p | 60 fps
    Видео: 1280 x 536 (2.388) | 60.000 fps | 10.0 Мбит/сек
    Аудио : AC3 | 5.1 | 48 kHz | 384 kbps | 16 bit | Дубляж - iTunes |

    MedifInfo

    Видео
    Идентификатор : 1
    Формат : AVC
    Формат/Информация : Advanced Video Codec
    Профиль формата : Main@L4.1
    Настройки формата : CABAC / 4 Ref Frames
    Параметр CABAC формата : Да
    Параметр RefFrames формата : 4 кадра
    Режим смешивания : Header stripping
    Идентификатор кодека : V_MPEG4/ISO/AVC
    Продолжительность : 1 ч. 29 м.
    Битрейт : 9999 Кбит/сек
    Ширина : 1280 пикселей
    Высота : 536 пикселей
    Соотношение сторон : 2,40:1
    Режим частоты кадров : Постоянный
    Частота кадров : 60,000 кадров/сек
    Цветовое пространство : YUV
    Субдискретизация насыщенности : 4:2:0
    Битовая глубина : 8 бит
    Тип развёртки : Прогрессивная
    Бит/(Пиксели*Кадры) : 0.243
    Размер потока : 6,08 Гбайт (94%)
    Заголовок : www.60-fps.org
    Библиотека кодирования : x264 core 155 r2901 7d0ff22
    Настройки программы : cabac=1 / ref=3 / deblock=1:-3:-3 / analyse=0x1:0x111 / me=hex / subme=7 / psy=1 / psy_rd=1.00:0.25 / mixed_ref=1 / me_range=16 / chroma_me=1 / trellis=1 / 8x8dct=0 / cqm=0 / deadzone=6,6 / fast_pskip=1 / chroma_qp_offset=-4 / threads=12 / lookahead_threads=2 / sliced_threads=0 / nr=0 / decimate=0 / interlaced=0 / bluray_compat=0 / constrained_intra=0 / bframes=3 / b_pyramid=2 / b_adapt=1 / b_bias=0 / direct=1 / weightb=1 / open_gop=0 / weightp=2 / keyint=600 / keyint_min=59 / scenecut=40 / intra_refresh=0 / rc_lookahead=40 / rc=2pass / mbtree=1 / bitrate=9999 / ratetol=1.0 / qcomp=0.80 / qpmin=0 / qpmax=69 / qpstep=4 / cplxblur=20.0 / qblur=0.5 / vbv_maxrate=50000 / vbv_bufsize=62500 / nal_hrd=none / filler=0 / ip_ratio=1.10 / aq=1:0.50
    Default : Да
    Forced : Нет
    Аудио
    Идентификатор : 2
    Формат : AC-3
    Формат/Информация : Audio Coding 3
    Режим смешивания : Header stripping
    Идентификатор кодека : A_AC3
    Продолжительность : 1 ч. 29 м.
    Вид битрейта : Постоянный
    Битрейт : 384 Кбит/сек
    Каналы : 6 каналов
    Расположение каналов : Front: L C R, Side: L R, LFE
    Частота : 48,0 КГц
    Частота кадров : 31,250 кадров/сек (1536 SPF)
    Битовая глубина : 16 бит
    Метод сжатия : С потерями
    Размер потока : 244 Мбайт (4%)
    Заголовок : iTunes
    Язык : Russian
    ServiceKind/String : Complete Main
    Default : Да
    Forced : Да
    Меню
    00:00:00.000 : en:00:00:00.000
    00:09:07.667 : en:00:09:07.667
    00:14:10.208 : en:00:14:10.208
    00:20:50.167 : en:00:20:50.167
    00:32:08.667 : en:00:32:08.667
    00:40:43.417 : en:00:40:43.417
    00:50:47.875 : en:00:50:47.875
    01:03:44.750 : en:01:03:44.750
    01:11:55.750 : en:01:11:55.750
    01:23:48.083 : en:01:23:48.083

    Релиз подготовлен 60 - fps

  2. Стаж:
    2 года
    Сообщений:
    96
    Пол:
    Мужской
    1080р будет?
    07-Авг-2018 18:56 (спустя 1 день 6 часов)
  3. Стаж:
    2 года 2 месяца
    Сообщений:
    663
    Пол:
    Мужской
    100781080р будет?
    Фильм без спецэффектов и каких либо видеонештяков,по этому 720р с головой хватает... !
    06-Сен-2018 22:39 (спустя 30 дней)


Вы не можете начинать темы
Вы не можете отвечать на сообщения
Вы не можете редактировать свои сообщения
Вы не можете удалять свои сообщения
Вы не можете голосовать в опросах
Вы не можете прикреплять файлы к сообщениям
Вы не можете скачивать файлы