Leah Gotti-Wet Wild And Hot (2017) Full HD 1080p | 60 fps Sheri Vi Tantalizes Nikolas With Her Oral Skills (2015) HD 1080p | 60 fps Feeling Every Drop (2018) Ultra HD | 60 fps Preppy Girl Threesome Get Three BBCs (2016) HD 1080p | 60 fps Lovers' Lane (2015) Full HD 1080p | 60 fps Peyton Coast & Ally Tate (2016) Full HD 1080p | 60 fps Blonde slut Daniella Margot in rough double penetration fucking (2016) Full HD 1080p | 60 fps Honey Gold (2017) HD 720p | 60 fps
  1. Longevity:
    2 years 8 months
    Posts:
    830
    Gender:
    Male
    -DVJ BAZUKA - Sweet Dance (2017) WEBRip 1080p | 60 fps --Информация о Клипе
    Исполнитель: DVJ BAZUKA
    Название: Sweet Dance
    Год выхода: 2017
    Продолжительность: 00:02:11
    Файл
    Кодек: V_MPEG4/ISO/AVC
    Контейнер: MKV
    Формат: AVC
    Качество: WEBRip 1080p | 60 fps
    Видео: 1920 x 1080 (1.778) | 60.000 fps | 10.0 Мбит/сек
    Аудио: AAC | 126 Кбит/сек | 2.0 канала | 44.1 КГц | 16 бит

    MediaInfo

    Видео
    Идентификатор : 1
    Формат : AVC
    Формат/Информация : Advanced Video Codec
    Профиль формата : High@L4.1
    Параметр CABAC формата : Да
    Параметр ReFrames формата : 4 кадра
    Идентификатор кодека : V_MPEG4/ISO/AVC
    Продолжительность : 2 м. 11 с.
    Битрейт : 10000 Кбит/сек
    Ширина : 1920 пикселей
    Высота : 1080 пикселей
    Соотношение сторон : 16:9
    Режим частоты кадров : Постоянный
    Частота кадров : 60,000 кадров/сек
    Цветовое пространство : YUV
    Субдискретизация насыщенности : 4:2:0
    Битовая глубина : 8 бит
    Тип развёртки : Прогрессивная
    Бит/(Пиксели*Кадры) : 0.080
    Размер потока : 156 Мбайт (99%)
    Заголовок : Талямба: 60-fps.org
    Библиотека кодирования : x264 core 146 r2538 121396c
    Настройки программы : cabac=1 / ref=3 / deblock=1:-2:-2 / analyse=0x3:0x113 / me=umh / subme=9 / psy=1 / psy_rd=1.00:0.15 / mixed_ref=1 / me_range=16 / chroma_me=1 / trellis=1 / 8x8dct=1 / cqm=0 / deadzone=21,11 / fast_pskip=1 / chroma_qp_offset=-3 / threads=12 / lookahead_threads=1 / sliced_threads=0 / nr=0 / decimate=1 / interlaced=0 / bluray_compat=0 / constrained_intra=0 / bframes=3 / b_pyramid=2 / b_adapt=1 / b_bias=0 / direct=1 / weightb=1 / open_gop=0 / weightp=2 / keyint=250 / keyint_min=25 / scenecut=40 / intra_refresh=0 / rc_lookahead=60 / rc=2pass / mbtree=1 / bitrate=10000 / ratetol=1.0 / qcomp=0.60 / qpmin=0 / qpmax=69 / qpstep=4 / cplxblur=20.0 / qblur=0.5 / vbv_maxrate=20000 / vbv_bufsize=26000 / nal_hrd=none / filler=0 / ip_ratio=1.40 / aq=1:1.00
    Язык : English
    Default : Да
    Forced : Нет
    Аудио
    Идентификатор : 2
    Формат : AAC
    Формат/Информация : Advanced Audio Codec
    Профиль формата : LC
    Идентификатор кодека : A_AAC
    Продолжительность : 2 м. 11 с.
    Битрейт : 126 Кбит/сек
    Каналы : 2 канала
    Расположение каналов : Front: L R
    Частота : 44,1 КГц
    Частота кадров : 43,066 кадра/сек (1024 spf)
    Метод сжатия : С потерями
    Размер потока : 1,97 Мбайт (1%)
    Default : Да
    Forced : Нет


You cannot post new topics in this forum
You cannot reply to topics in this forum
You cannot edit your posts in this forum
You cannot delete your posts in this forum
You cannot vote in polls in this forum
You cannot attach files in this forum
You cannot download files in this forum