За гранью реальности (2018) BDRip 1080p | 60 FPS Каникулы президента (2018) BDRip 1080p | 60 FPS Я худею (2018) BDRip 1080p | 60 FPS О чём говорят мужчины. Продолжение (2018) BDRip 1080p | 60 FPS Гоголь. Начало (2017) BDRip 1080p | 60 fps Собибор (2018) BDRip 1080p | 60 fps Тренер (2018) BDRip 1080p | 60 FPS Движение вверх (2017) BDRip 1080p | 60 FPS
  1. Стаж:
    2 года 3 месяца
    Сообщений:
    674
    Пол:
    Мужской
    Фильм «---» Фильм- Информация
    Название: Духless 2
    Оригинальное название: Дауншифтер
    Год выхода: 2015
    Жанр: драма
    Режиссер: Роман Прыгунов
    Сценарий: Сергей Минаев, Фуад Ибрагимбеков, Михаил Идов
    Продюсер: Петр Ануров, Фёдор Бондарчук, Дмитрий Рудовский
    В ролях: Данила Козловский,Мария Андреева,Милош Бикович,Павел Ворожцов,Александра Бортич,Кристина Бабушкина,Сергей Бурунов,Лев Прыгунов,Владимир Симонов,Доминик Пинон
    --Сюжет:
    Он отказался от всего, что так когда-то ценил — светской жизни, успешной карьеры, роскошного пентхауса. Теперь его стихия — океан. Каждый день он рассекает на серфе теплые волны, омывающие остров Бали. Но невозможно забыть ритм большого города. Случайное знакомство возвращает его в самое сердце современной столицы — высокие технологии, сумасшедшие сделки, смертельный риск и прежняя любовь, которая больше не с ним.-- Страна: Россия
    Продолжительность: 01:51:31

    Файл
    Кодек: MPEG4/ISO/AVC H.264/High@L4.1
    Формат: MKV
    Качество: BDRip 1080p | 60 fps
    Видео: 1920 x 800 (2.400) | 60.000 fps | 15,0 Мбит/сек
    Аудио 1: AC-3| 5.1 | 48 kHz | 640 Кбит/сек | 16 bit | Орегинал
    Аудио 2: DTS| 5.1 | 48 kHz | 1509 Кбит/сек| 16 bit | Орегинал
    Субтитры: НЕТ

    MedifInfo

    Видео
    Идентификатор : 1
    Формат : AVC
    Формат/Информация : Advanced Video Codec
    Профиль формата : High@L4.1
    Параметр CABAC формата : Да
    Параметр ReFrames формата : 4 кадра
    Идентификатор кодека : V_MPEG4/ISO/AVC
    Продолжительность : 1 ч. 51 м.
    Битрейт : 15,0 Мбит/сек
    Ширина : 1920 пикселей
    Высота : 800 пикселей
    Соотношение сторон : 2,40:1
    Режим частоты кадров : Постоянный
    Частота кадров : 60,000 кадров/сек
    Цветовое пространство : YUV
    Субдискретизация насыщенности : 4:2:0
    Битовая глубина : 8 бит
    Тип развёртки : Прогрессивная
    Бит/(Пиксели*Кадры) : 0.163
    Размер потока : 11,7 Гбайт (87%)
    Заголовок : Талямба: 60-fps.org
    Библиотека кодирования : x264 core 146 r2538 121396c
    Настройки программы : cabac=1 / ref=3 / deblock=1:-3:-3 / analyse=0x3:0x113 / me=hex / subme=7 / psy=1 / psy_rd=1.00:0.25 / mixed_ref=1 / me_range=16 / chroma_me=1 / trellis=1 / 8x8dct=1 / cqm=0 / deadzone=6,6 / fast_pskip=1 / chroma_qp_offset=-4 / threads=12 / lookahead_threads=2 / sliced_threads=0 / nr=0 / decimate=0 / interlaced=0 / bluray_compat=0 / constrained_intra=0 / bframes=3 / b_pyramid=2 / b_adapt=1 / b_bias=0 / direct=1 / weightb=1 / open_gop=0 / weightp=2 / keyint=599 / keyint_min=59 / scenecut=40 / intra_refresh=0 / rc_lookahead=40 / rc=2pass / mbtree=1 / bitrate=15000 / ratetol=1.0 / qcomp=0.80 / qpmin=0 / qpmax=69 / qpstep=4 / cplxblur=20.0 / qblur=0.5 / vbv_maxrate=50000 / vbv_bufsize=50000 / nal_hrd=none / filler=0 / ip_ratio=1.10 / aq=1:0.50
    Язык : Russian
    Default : Да
    Forced : Нет
    Аудио #1
    Идентификатор : 2
    Формат : AC-3
    Формат/Информация : Audio Coding 3
    Расширение режима : CM (complete main)
    Параметр Endianness формата : Big
    Идентификатор кодека : A_AC3
    Продолжительность : 1 ч. 51 м.
    Вид битрейта : Постоянный
    Битрейт : 640 Кбит/сек
    Каналы : 6 каналов
    Расположение каналов : Front: L C R, Side: L R, LFE
    Частота : 48,0 КГц
    Частота кадров : 31,250 кадров/сек (1536 spf)
    Битовая глубина : 16 бит
    Метод сжатия : С потерями
    Размер потока : 511 Мбайт (4%)
    Заголовок : Оригинал
    Язык : Russian
    Default : Да
    Forced : Нет
    Аудио #2
    Идентификатор : 3
    Формат : DTS
    Формат/Информация : Digital Theater Systems
    Режим : 16
    Параметр Endianness формата : Big
    Идентификатор кодека : A_DTS
    Продолжительность : 1 ч. 51 м.
    Вид битрейта : Постоянный
    Битрейт : 1510 Кбит/сек
    Каналы : 6 каналов
    Расположение каналов : Front: L C R, Side: L R, LFE
    Частота : 48,0 КГц
    Частота кадров : 93,750 кадра/сек (512 spf)
    Битовая глубина : 24 бит
    Метод сжатия : С потерями
    Размер потока : 1,18 Гбайт (9%)
    Заголовок : Оригинал
    Язык : Russian
    Default : Нет
    Forced : Нет
    Меню
    00:00:00.000 : en:Chapter 1
    00:10:49.583 : en:Chapter 2
    00:22:23.625 : en:Chapter 3
    00:28:42.083 : en:Chapter 4
    00:35:50.083 : en:Chapter 5
    00:47:02.333 : en:Chapter 6
    00:55:14.625 : en:Chapter 7
    01:05:19.083 : en:Chapter 8
    01:15:50.541 : en:Chapter 9
    01:23:27.125 : en:Chapter 10
    01:32:09.458 : en:Chapter 11
    01:43:26.458 : en:Chapter 12
    01:51:31.375 : en:Chapter 13
  2. Стаж:
    2 года 3 месяца
    Сообщений:
    674
    Пол:
    Мужской
    первую часть потом залью... !
    15-Апр-2018 15:15 (спустя 25 минут)
  3. Стаж:
    2 года 1 месяц
    Сообщений:
    97
    Пол:
    Мужской
    9591первую часть потом залью... !
    Спасибо, ждём!
    15-Апр-2018 19:24 (спустя 4 часа)


Вы не можете начинать темы
Вы не можете отвечать на сообщения
Вы не можете редактировать свои сообщения
Вы не можете удалять свои сообщения
Вы не можете голосовать в опросах
Вы не можете прикреплять файлы к сообщениям
Вы не можете скачивать файлы